Отцы и дети (Авдотья Смирнова) [2008, Драма, SATRip-AVC]

Ответить на тему
 
Автор Сообщение

user ®

Стаж: 7 лет 7 месяцев

Сообщений: 20008

Пост Пост: #1 от 02-Окт-2015 13:21

[Цитировать]

-Отцы и дети- Жанр: Драма
Год выпуска: 2008
Продолжительность: 02:55:35 (00:43:21 + 00:44:07 + 00:43:54 + 00:44:12)-Режиссёр: Авдотья Смирнова-В ролях: Александр Устюгов, Александр Ратников, Сергей Юрский, Наталья Тенякова, Андрей Смирнов, Анатолий Васильев (II), Наталья Рогожкина, Екатерина Вилкова, Дарья Белоусова (II), Геннадий Смирнов, Наталия Курдюбова, Анна Цуканова-Котт, Леонид Ярмольник, Иван Криворучко, Ольга Демидова, Андрей Гуркин, С. Борисов, Богдан Ермаков-Описание: По одноименному роману Ивана Тургенева. Знакомый всем конфликт поколений. Ровесники Аркадий Кирсанов и Евгений Базаров — абсолютно разные по мировоззрению люди. В то время как первый более склонен опираться на мнение старшего поколения, второй совершенно отрицает его.
И корит своего приятеля за излишнюю мягкотелость, считая что тот находится под сильным влиянием своих отца и дяди, время которых по его мнению прошло. Но вот жизнь ставит перед Евгением неразрешимую для его логического склада ума проблему — приходит любовь. Выдержит ли молодой человек это испытание на прочность?-Доп. информация:

Производство: Рекун-Синема, Россия, 2008 г.
Сценаристы: Авдотья Смирнова, Александр Адабашьян
Оператор: Юрий Райский
Композиторы: Алексей Стеблёв, Петр Климов
Художник: Александр Адабашьян
Продюсеры: Валерий Тодоровский, Илья Неретин-Сэмпл: https://yadi.sk/i/lHP_EyVmjTfv5-Качество видео: SATRip-AVC
Формат видео: MKV
Видео кодек: H.264
Аудио кодек: AC3
Видео: 704@763x424 анаморф (1.80:1), 25 fps, ~2217 kbps
Аудио: 48 kHz, AC3 Dolby Digital, 2/0 (L,R) ch, ~192 kbps
MediaInfo
General
Unique ID : 211668182155060758537622541752062363837 (0x9F3DCF1C8050FFF0A6DFF68BD80AC8BD)
Complete name : C:\Torrent\Отцы и дети.2008.SATRip-AVC by Dmitrio7197\1 серия.mkv
Format : Matroska
Format version : Version 2
File size : 748 MiB
Duration : 43mn 21s
Overall bit rate : 2 410 Kbps
Encoded date : UTC 2015-09-29 08:29:01
Writing application : mkvmerge v6.1.0 ('Old Devil') built on Mar 4 2013 09:10:42
Writing library : libebml v1.3.0 + libmatroska v1.4.0
Video
ID : 1
Format : AVC
Format/Info : Advanced Video Codec
Format profile : High@L4.1
Format settings, CABAC : Yes
Format settings, ReFrames : 8 frames
Codec ID : V_MPEG4/ISO/AVC
Duration : 43mn 21s
Bit rate : 2 217 Kbps
Width : 704 pixels
Height : 424 pixels
Display aspect ratio : 16:9
Frame rate mode : Constant
Frame rate : 25.000 fps
Color space : YUV
Chroma subsampling : 4:2:0
Bit depth : 8 bits
Scan type : Progressive
Bits/(Pixel*Frame) : 0.297
Stream size : 673 MiB (90%)
Writing library : x264 core 130 r2273 b3065e6
Encoding settings : cabac=1 / ref=8 / deblock=1:0:0 / analyse=0x3:0x113 / me=umh / subme=10 / psy=1 / psy_rd=1.00:0.00 / mixed_ref=1 / me_range=24 / chroma_me=1 / trellis=2 / 8x8dct=1 / cqm=0 / deadzone=21,11 / fast_pskip=1 / chroma_qp_offset=-2 / threads=6 / lookahead_threads=1 / sliced_threads=0 / nr=0 / decimate=0 / interlaced=0 / bluray_compat=0 / constrained_intra=0 / bframes=8 / b_pyramid=2 / b_adapt=1 / b_bias=0 / direct=3 / weightb=1 / open_gop=0 / weightp=2 / keyint=250 / keyint_min=25 / scenecut=40 / intra_refresh=0 / rc_lookahead=40 / rc=2pass / mbtree=1 / bitrate=2217 / ratetol=1.0 / qcomp=0.60 / qpmin=0 / qpmax=69 / qpstep=4 / cplxblur=20.0 / qblur=0.5 / ip_ratio=1.40 / aq=1:1.00
Default : Yes
Forced : No
Audio
ID : 2
Format : AC-3
Format/Info : Audio Coding 3
Mode extension : CM (complete main)
Format settings, Endianness : Big
Codec ID : A_AC3
Duration : 43mn 21s
Bit rate mode : Constant
Bit rate : 192 Kbps
Channel(s) : 2 channels
Channel positions : Front: L R
Sampling rate : 48.0 KHz
Bit depth : 16 bits
Compression mode : Lossy
Stream size : 59.5 MiB (8%)
Default : Yes
Forced : No--General
Unique ID : 251954774157611203556587584098665131552 (0xBD8CB97377B8952E85CC696A05AA6E20)
Complete name : C:\Torrent\Отцы и дети.2008.SATRip-AVC by Dmitrio7197\2 серия.mkv
Format : Matroska
Format version : Version 2
File size : 747 MiB
Duration : 44mn 7s
Overall bit rate : 2 368 Kbps
Encoded date : UTC 2015-09-30 19:47:07
Writing application : mkvmerge v6.1.0 ('Old Devil') built on Mar 4 2013 09:10:42
Writing library : libebml v1.3.0 + libmatroska v1.4.0
Video
ID : 1
Format : AVC
Format/Info : Advanced Video Codec
Format profile : High@L4.1
Format settings, CABAC : Yes
Format settings, ReFrames : 8 frames
Codec ID : V_MPEG4/ISO/AVC
Duration : 44mn 7s
Bit rate : 2 175 Kbps
Width : 704 pixels
Height : 424 pixels
Display aspect ratio : 16:9
Frame rate mode : Constant
Frame rate : 25.000 fps
Color space : YUV
Chroma subsampling : 4:2:0
Bit depth : 8 bits
Scan type : Progressive
Bits/(Pixel*Frame) : 0.291
Stream size : 672 MiB (90%)
Writing library : x264 core 130 r2273 b3065e6
Encoding settings : cabac=1 / ref=8 / deblock=1:0:0 / analyse=0x3:0x113 / me=umh / subme=10 / psy=1 / psy_rd=1.00:0.00 / mixed_ref=1 / me_range=24 / chroma_me=1 / trellis=2 / 8x8dct=1 / cqm=0 / deadzone=21,11 / fast_pskip=1 / chroma_qp_offset=-2 / threads=6 / lookahead_threads=1 / sliced_threads=0 / nr=0 / decimate=0 / interlaced=0 / bluray_compat=0 / constrained_intra=0 / bframes=8 / b_pyramid=2 / b_adapt=1 / b_bias=0 / direct=3 / weightb=1 / open_gop=0 / weightp=2 / keyint=250 / keyint_min=25 / scenecut=40 / intra_refresh=0 / rc_lookahead=40 / rc=2pass / mbtree=1 / bitrate=2175 / ratetol=1.0 / qcomp=0.60 / qpmin=0 / qpmax=69 / qpstep=4 / cplxblur=20.0 / qblur=0.5 / ip_ratio=1.40 / aq=1:1.00
Default : Yes
Forced : No
Audio
ID : 2
Format : AC-3
Format/Info : Audio Coding 3
Mode extension : CM (complete main)
Format settings, Endianness : Big
Codec ID : A_AC3
Duration : 44mn 7s
Bit rate mode : Constant
Bit rate : 192 Kbps
Channel(s) : 2 channels
Channel positions : Front: L R
Sampling rate : 48.0 KHz
Bit depth : 16 bits
Compression mode : Lossy
Stream size : 60.6 MiB (8%)
Default : Yes
Forced : No--General
Unique ID : 182646543506494417783234948629033247835 (0x896871DA561B4591BFF5F2BE2179E45B)
Complete name : C:\Torrent\Отцы и дети.2008.SATRip-AVC by Dmitrio7197\3 серия.mkv
Format : Matroska
Format version : Version 2
File size : 747 MiB
Duration : 43mn 54s
Overall bit rate : 2 380 Kbps
Encoded date : UTC 2015-10-01 01:31:01
Writing application : mkvmerge v6.1.0 ('Old Devil') built on Mar 4 2013 09:10:42
Writing library : libebml v1.3.0 + libmatroska v1.4.0
Video
ID : 1
Format : AVC
Format/Info : Advanced Video Codec
Format profile : High@L4.1
Format settings, CABAC : Yes
Format settings, ReFrames : 8 frames
Codec ID : V_MPEG4/ISO/AVC
Duration : 43mn 54s
Bit rate : 2 187 Kbps
Width : 704 pixels
Height : 424 pixels
Display aspect ratio : 16:9
Frame rate mode : Constant
Frame rate : 25.000 fps
Color space : YUV
Chroma subsampling : 4:2:0
Bit depth : 8 bits
Scan type : Progressive
Bits/(Pixel*Frame) : 0.293
Stream size : 672 MiB (90%)
Writing library : x264 core 130 r2273 b3065e6
Encoding settings : cabac=1 / ref=8 / deblock=1:0:0 / analyse=0x3:0x113 / me=umh / subme=10 / psy=1 / psy_rd=1.00:0.00 / mixed_ref=1 / me_range=24 / chroma_me=1 / trellis=2 / 8x8dct=1 / cqm=0 / deadzone=21,11 / fast_pskip=1 / chroma_qp_offset=-2 / threads=6 / lookahead_threads=1 / sliced_threads=0 / nr=0 / decimate=0 / interlaced=0 / bluray_compat=0 / constrained_intra=0 / bframes=8 / b_pyramid=2 / b_adapt=1 / b_bias=0 / direct=3 / weightb=1 / open_gop=0 / weightp=2 / keyint=250 / keyint_min=25 / scenecut=40 / intra_refresh=0 / rc_lookahead=40 / rc=2pass / mbtree=1 / bitrate=2187 / ratetol=1.0 / qcomp=0.60 / qpmin=0 / qpmax=69 / qpstep=4 / cplxblur=20.0 / qblur=0.5 / ip_ratio=1.40 / aq=1:1.00
Default : Yes
Forced : No
Audio
ID : 2
Format : AC-3
Format/Info : Audio Coding 3
Mode extension : CM (complete main)
Format settings, Endianness : Big
Codec ID : A_AC3
Duration : 43mn 54s
Bit rate mode : Constant
Bit rate : 192 Kbps
Channel(s) : 2 channels
Channel positions : Front: L R
Sampling rate : 48.0 KHz
Bit depth : 16 bits
Compression mode : Lossy
Stream size : 60.3 MiB (8%)
Default : Yes
Forced : No--General
Unique ID : 233766882247307865288917418712555796444 (0xAFDDDD2571E39C57B466616F4E4F37DC)
Complete name : C:\Torrent\Отцы и дети.2008.SATRip-AVC by Dmitrio7197\4 серия.mkv
Format : Matroska
Format version : Version 2
File size : 747 MiB
Duration : 44mn 12s
Overall bit rate : 2 364 Kbps
Encoded date : UTC 2015-10-02 02:52:58
Writing application : mkvmerge v6.1.0 ('Old Devil') built on Mar 4 2013 09:10:42
Writing library : libebml v1.3.0 + libmatroska v1.4.0
Video
ID : 1
Format : AVC
Format/Info : Advanced Video Codec
Format profile : High@L4.1
Format settings, CABAC : Yes
Format settings, ReFrames : 8 frames
Codec ID : V_MPEG4/ISO/AVC
Duration : 44mn 12s
Bit rate : 2 170 Kbps
Width : 704 pixels
Height : 424 pixels
Display aspect ratio : 16:9
Frame rate mode : Constant
Frame rate : 25.000 fps
Color space : YUV
Chroma subsampling : 4:2:0
Bit depth : 8 bits
Scan type : Progressive
Bits/(Pixel*Frame) : 0.291
Stream size : 672 MiB (90%)
Writing library : x264 core 130 r2273 b3065e6
Encoding settings : cabac=1 / ref=8 / deblock=1:0:0 / analyse=0x3:0x113 / me=umh / subme=10 / psy=1 / psy_rd=1.00:0.00 / mixed_ref=1 / me_range=24 / chroma_me=1 / trellis=2 / 8x8dct=1 / cqm=0 / deadzone=21,11 / fast_pskip=1 / chroma_qp_offset=-2 / threads=6 / lookahead_threads=1 / sliced_threads=0 / nr=0 / decimate=0 / interlaced=0 / bluray_compat=0 / constrained_intra=0 / bframes=8 / b_pyramid=2 / b_adapt=1 / b_bias=0 / direct=3 / weightb=1 / open_gop=0 / weightp=2 / keyint=250 / keyint_min=25 / scenecut=40 / intra_refresh=0 / rc_lookahead=40 / rc=2pass / mbtree=1 / bitrate=2170 / ratetol=1.0 / qcomp=0.60 / qpmin=0 / qpmax=69 / qpstep=4 / cplxblur=20.0 / qblur=0.5 / ip_ratio=1.40 / aq=1:1.00
Default : Yes
Forced : No
Audio
ID : 2
Format : AC-3
Format/Info : Audio Coding 3
Mode extension : CM (complete main)
Format settings, Endianness : Big
Codec ID : A_AC3
Duration : 44mn 12s
Bit rate mode : Constant
Bit rate : 192 Kbps
Channel(s) : 2 channels
Channel positions : Front: L R
Sampling rate : 48.0 KHz
Bit depth : 16 bits
Compression mode : Lossy
Stream size : 60.7 MiB (8%)
Default : Yes
Forced : No
Скриншоты Сравнение
SATRip-AVC - [url=http://***/forum/viewtopic.php?t=3421562]http://***/forum/viewtopic.php?t=3421562[/url]
http://screenshotcomparison.com/comparison/144613
http://screenshotcomparison.com/comparison/144616
У конкурента перекроп, артефакты и квадраты.
*Черные полоски в моем рипе плавающие.
Скачать

Скачать торрент!

Как скачивать? · Что такое торрент? · Рейтинг и ограничения

Сайт не распространяет и не хранит электронные версии произведений, а лишь предоставляет доступ к создаваемому пользователями каталогу ссылок на торрент-файлы, которые содержат только списки хеш-сумм

[Профиль] [ЛС]
Показать сообщения:    
Ответить на тему

Текущее время: Сегодня 15:38

Часовой пояс: GMT + 4



Вы не можете начинать темы
Вы не можете отвечать на сообщения
Вы не можете редактировать свои сообщения
Вы не можете удалять свои сообщения
Вы не можете голосовать в опросах
Вы не можете прикреплять файлы к сообщениям
Вы не можете скачивать файлы