Всё, что мне осталось от тебя / Senden Bana Kalan (Абдуллах Огуз / Abdullah Oguz) [2015, Турция, Драма, WEBRip] DVO

Ответить на тему
 
Автор Сообщение

user ®

Стаж: 7 лет 7 месяцев

Сообщений: 20008

Пост Пост: #1 от 02-Окт-2015 13:21

[Цитировать]

Всё, что мне осталось от тебя / Senden Bana Kalan
Страна: Турция, ANS Production
Жанр: Драма
Год выпуска: 2015
Продолжительность: 01:51:55
Перевод: Любительский (двухголосый закадровый) Раим Закиров, Ирина Котова
Cубтитры: нет
Оригинальная аудиодорожка: нет
Режиссер: Абдуллах Огуз / Abdullah Oğuz
В ролях: Неслихан Атагюль, Экин Коч, Зейнеп Канконде, Сабри Озменер, Тайфун Сав, Дога Конакоглу, Дила Пекдемир, Силвйо Бехмоарас, Гамзе Пелин Гёкче, Бугра Озмюлдюр, Хакан Карахан, Вильма Эллес
Описание: Вся эта история началась еще 10 лет тому назад, когда случилась эта трагедия. Маленький мальчик Озгюр потерял своих родителей. Тогда они жили в деревне, вели хозяйство и у них был на содержании детский дом для сирот. Именно здесь, Озгюр встретил свою первую детскую любовь - девочку Элиф. Когда приехал дед забирать осиротевшего мальчика, Озгюр сказал Элиф: "Я вернусь через десять дней". Но прошло 10 лет... Молодой парень Озгюр живёт в Стамбуле на деньги своего богатого дедушки. Он разгильдяй, тусовщик и драчун. Всё ему сходит с рук, ведь он богач и скоро получит в наследство всё состояние деда. Дорогие машины, шикарные апартаменты, красивые девушки и ночные клубы. Жизнь удалась и ему наконец исполняется 18. Но вдруг всплывает небольшая деталь в завещании дедушки: Озгюр получит наследство, если закончит старшую школу в той деревне, где он родился. Маленькая школа в деревне, с привычной жизнью придётся проститься, но будущий миллионер не собирается так просто сдаваться... Он поклялся перед портретом деда, что заберет у него все его заработанные деньги! Но кто сказал, что человек не может измениться? Встретив в этой деревне свою девочку Элиф, судьба Озгюра круто меняется.
Доп. информация: Релиз - shachter58. Перевод: Любительский (двухголосый закадровый) Раим Закиров, Ирина Котова. Озвучено по переводу группы ВКонтакте "Fatih Harbiye|Kara Sevda❤Кадир и Неслихан❤"
Сэмпл: http://multi-up.com/1069115
Качество видео: WEBRip
Формат видео: AVI
Видео: MPEG-4 Visual, XviD, 720x304 (1:2.35), 1 571 Kbps, 25.000 fps, Bits/(Pixel*Frame): 0.287
Аудио: Audio Coding 3, АС-3, 192 Kbps, 2 channels, 48.0 KHz - Русский
MediaInfo
General
Complete name: I:\КИНО ТУРЦИИ\ГОТОВЫЕ РАЗДАЧИ ФИЛЬМОВ\Senden.Bana.Kalan.2015.russ.L2.WEBRip.avi
Format : AVI
Format/Info : Audio Video Interleave
File size : 1.39 GiB
Duration : 1h 51mn
Overall bit rate : 1 773 Kbps
Video
ID : 0
Format : MPEG-4 Visual
Format profile : Advanced Simple@L5
Format settings, BVOP : 2
Format settings, QPel : No
Format settings, GMC : No warppoints
Format settings, Matrix : Default (H.263)
Codec ID : XVID
Codec ID/Hint : XviD
Duration : 1h 51mn
Bit rate : 1 571 Kbps
Width : 720 pixels
Height : 304 pixels
Display aspect ratio : 2.35:1
Frame rate : 25.000 fps
Color space : YUV
Chroma subsampling : 4:2:0
Bit depth : 8 bits
Scan type : Progressive
Compression mode : Lossy
Bits/(Pixel*Frame) : 0.287
Stream size : 1.23 GiB (89%)
Writing library : XviD 63
Audio
ID : 1
Format : AC-3
Format/Info : Audio Coding 3
Mode extension : CM (complete main)
Format settings, Endianness : Big
Codec ID : 2000
Duration : 1h 51mn
Bit rate mode : Constant
Bit rate : 192 Kbps
Channel(s) : 2 channels
Channel positions : Front: L R
Sampling rate : 48.0 KHz
Compression mode : Lossy
Stream size : 154 MiB (11%)
Alignment : Split accross interleaves
Interleave, duration : 40 ms (1.00 video frame)
Interleave, preload duration : 500 ms
Скриншот c названием фильма Скриншоты
Скачать

Скачать торрент!

Как скачивать? · Что такое торрент? · Рейтинг и ограничения

Сайт не распространяет и не хранит электронные версии произведений, а лишь предоставляет доступ к создаваемому пользователями каталогу ссылок на торрент-файлы, которые содержат только списки хеш-сумм

[Профиль] [ЛС]
Показать сообщения:    
Ответить на тему

Текущее время: Сегодня 19:59

Часовой пояс: GMT + 4



Вы не можете начинать темы
Вы не можете отвечать на сообщения
Вы не можете редактировать свои сообщения
Вы не можете удалять свои сообщения
Вы не можете голосовать в опросах
Вы не можете прикреплять файлы к сообщениям
Вы не можете скачивать файлы