Любовь преступника / Jeet (Радж Канвар / Raj Kanwar) [1996, Индия, Драма, мелодрама, WEB-DLRip] VO

Ответить на тему
 
Автор Сообщение

user ®

Стаж: 12 лет

Сообщений: 15092

Пост Пост: #1 от 02-Окт-2015 10:15

[Цитировать]

Любовь преступника / Jeet
Страна: Индия
Жанр: Драма, мелодрама
Год выпуска: 1996
Продолжительность: 02:46:46
Перевод: Одноголосый закадровый
Cубтитры: нет
Режиссер: Радж Канвар / Raj Kanwar
В ролях: Санни Деол, Салман Кхан, Каришма Капур, Амриш Пури, Табу, Алок Натх, Далип Тахил, Мохан Джоши, Дипак Ширке, Джонни Левер
Описание: Очередное задание наемного убийцы Карана - убийство человека, который хочет выступить с показаниями на суде. Но придя в его дом он встречает Каджал, его дочь и влюбляется в нее. Оставив в живых ее отца, он становится ее тенью и повсюду следует за ней. Вскоре Каджал поняла, что Каран любит ее и это чувство становиться взаимным. Но судьба распорядилась иначе. Отец Каджал выдает ее замуж за Раджу, сына своего друга. Каран снова встает на путь наемного убийцы и очередным его заданием становится убийство Раджа, который переходит дорогу бандитам, хозяевам Карана...
Доп. информация: Исходник WEB-DL (1080p) (СПАСИБО! tarahb)
Сэмпл: http://multi-up.com/1069050
Качество видео: WEB-DLRip
Формат видео: AVI
Видео: XviD build 50, 688x304 (2.26:1), 25 fps, 1117 kbps avg
Аудио: MPEG Layer 3, 48 kHz, 2/0 (L,R) ch, 128.00 kbps
MediaInfo
General
Complete name : F:\Любовь преступника\Lubov.prestupnika.1996.WEB-DLRip-Dego.avi
Format : AVI
Format/Info : Audio Video Interleave
File size : 1.46 GiB
Duration : 2h 46mn
Overall bit rate : 1 256 Kbps
Writing application : VirtualDubMod 1.5.10.2 (build 2540/release)
Writing library : VirtualDubMod build 2540/release
Video
ID : 0
Format : MPEG-4 Visual
Format profile : AdvancedSimple@L5
Format settings, BVOP : Yes
Format settings, QPel : No
Format settings, GMC : No warppoints
Format settings, Matrix : Custom
Codec ID : XVID
Codec ID/Hint : XviD
Duration : 2h 46mn
Bit rate : 1 118 Kbps
Width : 688 pixels
Height : 304 pixels
Display aspect ratio : 2.25
Frame rate : 25.000 fps
Resolution : 24 bits
Colorimetry : 4:2:0
Scan type : Progressive
Bits/(Pixel*Frame) : 0.214
Stream size : 1.30 GiB (89%)
Writing library : XviD 1.2.1 (UTC 2008-12-04)
Audio
ID : 1
Format : MPEG Audio
Format version : Version 1
Format profile : Layer 3
Codec ID : 55
Codec ID/Hint : MP3
Duration : 2h 46mn
Bit rate mode : Constant
Bit rate : 128 Kbps
Channel(s) : 2 channels
Sampling rate : 48.0 KHz
Resolution : 16 bits
Stream size : 153 MiB (10%)
Alignment : Aligned on interleaves
Interleave, duration : 40 ms (1.00 video frame)
Interleave, preload duration : 504 ms
Writing library : LAME3.98r
Encoding settings : -m j -V 4 -q 2 -lowpass 17 -b 128
Скриншоты Сравнения
[url=http://***/forum/viewtopic.php?t=4027374]http://***/forum/viewtopic.php?t=4027374[/url] => http://screenshotcomparison.com/comparison/144905/picture:0
перевод тот же
Скачать

Скачать торрент! Любовь преступника / Jeet (Радж Канвар / Raj Kanwar) [1996, Индия, Драма, мелодрама, WEB-DLRip] VO

Как скачивать? · Что такое торрент? · Рейтинг и ограничения

Сайт не распространяет и не хранит электронные версии произведений, а лишь предоставляет доступ к создаваемому пользователями каталогу ссылок на торрент-файлы, которые содержат только списки хеш-сумм

[Профиль] [ЛС]
Показать сообщения:    
Ответить на тему

Текущее время: Сегодня 16:08

Часовой пояс: GMT + 4



Вы не можете начинать темы
Вы не можете отвечать на сообщения
Вы не можете редактировать свои сообщения
Вы не можете удалять свои сообщения
Вы не можете голосовать в опросах
Вы не можете прикреплять файлы к сообщениям
Вы не можете скачивать файлы