Изгой / Cast Away (Роберт Земекис / Robert Zemeckis) [2000, США, драма, приключения, BDRip 720p] Dub + 2x DVO + AVO + 2x MVO (Ukr) + Sub Rus, Ukr, Eng + Original Eng

Ответить на тему
 
Автор Сообщение

user ®

Стаж: 7 лет 7 месяцев

Сообщений: 20008

Пост Пост: #1 от 02-Окт-2015 01:00

[Цитировать]

Изгой / Cast Away
Страна: США
Студия: Twentieth Century Fox Film Corporation, DreamWorks SKG, ImageMovers
Жанр: драма, приключения
Год выпуска: 2000
Продолжительность: 02:23:47
Перевод: Профессиональный (дублированный) Позитив-Мультимедиа
Перевод 2: Профессиональный (двухголосый закадровый) Премьер Мультимедиа
Перевод 3: Профессиональный (двухголосый закадровый) Премьер Видео Фильм
Перевод 4: Авторский (одноголосый закадровый) Ю.Живов
Cубтитры: русские, украинские, английские
Оригинальная аудиодорожка: английский
Режиссер: Роберт Земекис / Robert Zemeckis
В ролях: Том Хэнкс, Хелен Хант, Крис Нот, Ник Сирси, Дженифер Льюис, Пол Санчез, Лари Уайт, Леонид Ситер, Дэвид Аллен Брукс, Елена Папович
Описание: Герой этой картины, Чак Нолан, - сотрудник всемирно известной службы доставки «Федерал Экспресс». Чак - скрупулезный практик и неисправимый педант. Жизнь Нолана, высокопоставленного инспектора международных отделений «ФедЕкс» расписана по минутам. И этих драгоценных минут катастрофически не хватает ни на личную жизнь, ни на любимую женщину...
Однако, безжалостная судьба заставила Нолана иначе взглянуть на отпущенное ему время... Самолет, на котором путешествует Чак, падает в океан. Инженер, единственный, кому посчастливилось остаться в живых, попадает на необитаемый остров. Здесь Нолану предстоит провести мучительно долгие годы в жестокой битве за выживание...- by N1NT3NDO-Сэмпл: http://sendfile.su/1158726
Тип релиза: BDRip 720p [N1NT3NDO]
Контейнер: MKV
Видео: h.264, 1278x692, 23.976 fps, 7566 kbps
Аудио #1: Russian: AC3 5.1, 48 kHz, 448 kbps avg |Дубляж, Позитив-Мультимедиа|
Аудио #2: Russian: AC3 5.1, 48 kHz, 448 kbps avg |Двухголосый закадровый, Премьер Мультимедиа|
Аудио #3: Russian: AC3 2.0, 48 kHz, 192 kbps avg |Двухголосый закадровый, Премьер Видео Фильм|
Аудио #4: Russian: AC3 5.1, 48 kHz, 448 kbps avg |Одноголосый закадровый, Ю.Живов|
Аудио #5: Ukrainian: AC3 2.0, 48 kHz, 192 kbps avg |Многоголосый закадровый, ICTV|
Аудио #6: Ukrainian: AC3 2.0, 48 kHz, 192 kbps avg |Многоголосый закадровый, ІНТЕР|
Аудио #7: English: AC3 5.1, 48 kHz, 640 kbps avg |Оригинал|
Формат субтитров: softsub (SRT)
Цитата:
  • За подписанные главы спасибо john.
  • За дорожку №1 спасибо AntonGvozdev.
  • За дорожку №3 спасибо bora86bora, серый75.
  • За дорожку №4 спасибо MIFAL, selanne.
  • За дорожки №5-6 спасибо Hurtom.
  • За русские и английские субтитры спасибо Skazhutin.
  • За украинские субтитры спасибо ratbol.
MediaInfo
Format : Matroska
Format version : Version 2
File size : 10.4 GiB
Duration : 2h 23mn
Overall bit rate : 10.3 Mbps
Movie name : Изгой / Cast Away (2000) - Release for HDCLUB
Encoded date : UTC 2015-08-04 15:41:49
Writing application : mkvmerge v5.8.0 ('No Sleep / Pillow') built on Sep 2 2012 15:37:04
Writing library : libebml v1.2.3 + libmatroska v1.3.0
Attachements : cover.png / logfile.log
Video
ID : 1
Format : AVC
Format/Info : Advanced Video Codec
Format profile : High@L4.1
Format settings, CABAC : Yes
Format settings, ReFrames : 8 frames
Codec ID : V_MPEG4/ISO/AVC
Duration : 2h 23mn
Bit rate : 7 566 Kbps
Width : 1 278 pixels
Height : 692 pixels
Display aspect ratio : 1.85:1
Frame rate mode : Constant
Frame rate : 23.976 fps
Color space : YUV
Chroma subsampling : 4:2:0
Bit depth : 8 bits
Scan type : Progressive
Bits/(Pixel*Frame) : 0.357
Stream size : 7.60 GiB (73%)
Title : Изгой / Cast Away (2000) - Release for HDCLUB
Writing library : x264 core 146 r0+2586 e393126 t_mod_Custom [8-bit@all X86_64]
Encoding settings : cabac=1 / ref=8 / deblock=1:-3:-3 / analyse=0x3:0x133 / me=esa / subme=10 / psy=1 / fade_compensate=0.00 / psy_rd=1.10:0.00 / mixed_ref=1 / me_range=48 / chroma_me=1 / trellis=2 / 8x8dct=1 / cqm=0 / deadzone=21,11 / fast_pskip=0 / chroma_qp_offset=-2 / threads=12 / lookahead_threads=2 / sliced_threads=0 / nr=0 / decimate=0 / interlaced=0 / bluray_compat=0 / constrained_intra=0 / fgo=0 / bframes=8 / b_pyramid=2 / b_adapt=2 / b_bias=0 / direct=3 / weightb=1 / open_gop=0 / weightp=2 / keyint=240 / keyint_min=23 / scenecut=40 / intra_refresh=0 / rc=crf / mbtree=0 / crf=17.0000 / qcomp=0.75 / qpmin=0:0:0 / qpmax=69:69:69 / qpstep=4 / ip_ratio=1.30 / pb_ratio=1.20 / aq=1:0.75 / aq-sensitivity=10.00 / aq-factor=1.00:1.00:1.00 / aq2=0 / aq3=0
Language : English
Default : Yes
Forced : No
Audio #1
ID : 2
Format : AC-3
Format/Info : Audio Coding 3
Mode extension : CM (complete main)
Format settings, Endianness : Big
Codec ID : A_AC3
Duration : 2h 23mn
Bit rate mode : Constant
Bit rate : 448 Kbps
Channel(s) : 6 channels
Channel positions : Front: L C R, Side: L R, LFE
Sampling rate : 48.0 KHz
Compression mode : Lossy
Stream size : 461 MiB (4%)
Title : Дубляж, Позитив-Мультимедиа
Language : Russian
Default : Yes
Forced : No
Audio #2
ID : 3
Format : AC-3
Format/Info : Audio Coding 3
Mode extension : CM (complete main)
Format settings, Endianness : Big
Codec ID : A_AC3
Duration : 2h 23mn
Bit rate mode : Constant
Bit rate : 448 Kbps
Channel(s) : 6 channels
Channel positions : Front: L C R, Side: L R, LFE
Sampling rate : 48.0 KHz
Compression mode : Lossy
Stream size : 461 MiB (4%)
Title : Двухголосый закадровый, Премьер Мультимедиа
Language : Russian
Default : No
Forced : No
Audio #3
ID : 4
Format : AC-3
Format/Info : Audio Coding 3
Mode extension : CM (complete main)
Format settings, Endianness : Big
Codec ID : A_AC3
Duration : 2h 23mn
Bit rate mode : Constant
Bit rate : 192 Kbps
Channel(s) : 2 channels
Channel positions : Front: L R
Sampling rate : 48.0 KHz
Compression mode : Lossy
Stream size : 197 MiB (2%)
Title : Двухголосый закадровый, Премьер Видео Фильм
Language : Russian
Default : No
Forced : No
Audio #4
ID : 5
Format : AC-3
Format/Info : Audio Coding 3
Mode extension : CM (complete main)
Format settings, Endianness : Big
Codec ID : A_AC3
Duration : 2h 23mn
Bit rate mode : Constant
Bit rate : 448 Kbps
Channel(s) : 6 channels
Channel positions : Front: L C R, Side: L R, LFE
Sampling rate : 48.0 KHz
Compression mode : Lossy
Stream size : 461 MiB (4%)
Title : Одноголосый закадровый, Ю.Живов
Language : Russian
Default : No
Forced : No
Audio #5
ID : 6
Format : AC-3
Format/Info : Audio Coding 3
Mode extension : CM (complete main)
Format settings, Endianness : Big
Codec ID : A_AC3
Duration : 2h 23mn
Bit rate mode : Constant
Bit rate : 192 Kbps
Channel(s) : 2 channels
Channel positions : Front: L R
Sampling rate : 48.0 KHz
Compression mode : Lossy
Stream size : 197 MiB (2%)
Title : Многоголосый закадровый, ICTV
Language : Ukrainian
Default : No
Forced : No
Audio #6
ID : 7
Format : AC-3
Format/Info : Audio Coding 3
Mode extension : CM (complete main)
Format settings, Endianness : Big
Codec ID : A_AC3
Duration : 2h 23mn
Bit rate mode : Constant
Bit rate : 192 Kbps
Channel(s) : 2 channels
Channel positions : Front: L R
Sampling rate : 48.0 KHz
Compression mode : Lossy
Stream size : 197 MiB (2%)
Title : Многоголосый закадровый, ІНТЕР
Language : Ukrainian
Default : No
Forced : No
Audio #7
ID : 8
Format : AC-3
Format/Info : Audio Coding 3
Mode extension : CM (complete main)
Format settings, Endianness : Big
Codec ID : A_AC3
Duration : 2h 23mn
Bit rate mode : Constant
Bit rate : 640 Kbps
Channel(s) : 6 channels
Channel positions : Front: L C R, Side: L R, LFE
Sampling rate : 48.0 KHz
Compression mode : Lossy
Stream size : 658 MiB (6%)
Title : English
Language : English
Default : No
Forced : No
Text #1
ID : 9
Format : UTF-8
Codec ID : S_TEXT/UTF8
Codec ID/Info : UTF-8 Plain Text
Title : Russian
Language : Russian
Default : No
Forced : No
Text #2
ID : 10
Format : UTF-8
Codec ID : S_TEXT/UTF8
Codec ID/Info : UTF-8 Plain Text
Title : Ukrainian
Language : Ukrainian
Default : No
Forced : No
Text #3
ID : 11
Format : UTF-8
Codec ID : S_TEXT/UTF8
Codec ID/Info : UTF-8 Plain Text
Title : English
Language : English
Default : No
Forced : No
Menu
00:00:00.000 : en:Main Titles
00:01:50.819 : en:The Fedex Way
00:08:37.850 : en:A Message for Kelly
00:12:23.325 : en:Home for Christmas
00:17:41.268 : en:Presents & Promises
00:20:43.533 : en:Turbulence
00:22:40.233 : en:Mayday!
00:25:45.460 : en:The Crash
00:31:11.619 : en:Washed Ashore
00:35:55.319 : en:Totally Alone
00:39:35.623 : en:The Coconut Problem
00:42:23.207 : en:The Island
00:46:34.208 : en:Albert Miller
00:51:49.314 : en:A Light in the Distance
00:56:29.052 : en:The Storm
01:01:34.357 : en:Gifts From Fedex
01:04:33.119 : en:To Make Fire
01:13:11.845 : en:Wilson
01:17:37.736 : en:His Own Dentist
01:19:09.744 : en:Four Years Later
01:20:42.045 : en:The Raft
01:26:37.900 : en:30 Feet of Rope
01:34:00.176 : en:Escape to the Sea
01:40:37.364 : en:Where's Wilson?
01:45:21.398 : en:Rescued
01:47:38.368 : en:Welcome Home
01:53:30.470 : en:Back to Life
01:55:59.952 : en:The Night Visitor
02:04:59.575 : en:The Love of My Life
02:08:27.574 : en:Adding It Up
02:12:21.725 : en:At the Crossroads
02:16:54.414 : en:End Titles
log x264
x264 [info]: frame I:1140 Avg QP:14.88 size:116962
x264 [info]: frame P:43987 Avg QP:16.12 size: 61635
x264 [info]: frame B:161705 Avg QP:17.70 size: 34203
x264 [info]: consecutive B-frames: 2.0% 2.2% 6.7% 19.1% 17.1% 37.9% 7.6% 4.1% 3.2%
Source vs Encode vs REVEiLLE Скриншоты
Скачать

Скачать торрент!

Как скачивать? · Что такое торрент? · Рейтинг и ограничения

Сайт не распространяет и не хранит электронные версии произведений, а лишь предоставляет доступ к создаваемому пользователями каталогу ссылок на торрент-файлы, которые содержат только списки хеш-сумм

[Профиль] [ЛС]
Показать сообщения:    
Ответить на тему

Текущее время: Сегодня 19:39

Часовой пояс: GMT + 4



Вы не можете начинать темы
Вы не можете отвечать на сообщения
Вы не можете редактировать свои сообщения
Вы не можете удалять свои сообщения
Вы не можете голосовать в опросах
Вы не можете прикреплять файлы к сообщениям
Вы не можете скачивать файлы