Гость / The Guest (Адам Вингард / Adam Wingard) [2014, США, Великобритания, триллер, боевик, BDRip 1080p] [Snoot Entertainment] Dub + Sub Rus, Eng + Original Eng

Ответить на тему
 
Автор Сообщение

user ®

Стаж: 7 лет 7 месяцев

Сообщений: 20008

Пост Пост: #1 от 01-Окт-2015 15:42

[Цитировать]

Гость / The Guest"Он просто зашёл помочь..."- Страна: США, Великобритания
Студия: Snoot Entertainment
Жанр: триллер, боевик
Год выпуска: 2014
Продолжительность: 1:40:25
Перевод: Профессиональный (дублированный)
Cубтитры: Русские, Английские, Английские.
Оригинальная аудиодорожка: английский
Режиссер: Адам Вингард / Adam Wingard
В ролях: Дэн Стивенс, Майка Монро, Брендан Мейер, Шейла Келли, Лиленд Орсер, Лэнс Реддик, Табата Шон, Чейз Уильямсон, Джоэль Мур, Стив Браун-Описание: Семья Петерсон недавно потеряла на войне в Афганистане своего сына Калеба и все еще оплакивает его. История начинается с появления на пороге их дома таинственного незнакомца Дэвида, который говорит безутешным родителям, что он армейский товарищ их сына и приехал, выполняя тем самым его последнюю волю.
Родные Калеба рады принять Дэвида. Но вскоре после появления в доме гостя происходит серия странных смертей…-Сэмпл:https://yadi.sk/i/q-Man6uajLNsu
Тип релиза: BDRip 1080p
Контейнер: MKV
Видео: MPEG-4 AVC, 14900 Кбит/с, 1920x800, 23,976 кадра/сек
Аудио: Русский (AC3, 6 ch, 384 Кбит/с)
Аудио 2: английский (DTS, 6 ch, 1510 Кбит/с)
MediaInfo
Общее
Уникальный идентификатор : 225354283322984957714296808249876175527 (0xA989A7FF006B3F0EA70958215D4E5AA7)
Полное имя : F:\Movie\The.Guest.2014.1080p.mkv
Формат : Matroska
Версия формата : Version 4 / Version 2
Размер файла : 12,1 Гбайт
Продолжительность : 1 ч. 40 м.
Общий поток : 17,2 Мбит/сек
Название фильма : The.Guest.2014.1080p.BluRay.DTS.x264-VietHD
Дата кодирования : UTC 2015-02-25 20:26:47
Программа кодирования : mkvmerge v7.6.0 ('Garden of Dreams') 64bit built on Feb 8 2015 13:04:34
Библиотека кодирования : libebml v1.3.1 + libmatroska v1.4.2
DURATION : 01:40:19.936000000
NUMBER_OF_FRAMES : 188123
NUMBER_OF_BYTES : 288956928
_STATISTICS_WRITING_APP : mkvmerge v7.6.0 ('Garden of Dreams') 64bit built on Feb 8 2015 13:04:34
_STATISTICS_WRITING_DATE_UTC : 2015-02-25 20:26:47
_STATISTICS_TAGS : BPS DURATION NUMBER_OF_FRAMES NUMBER_OF_BYTES
Attachment : Yes
Видео
Идентификатор : 1
Формат : AVC
Формат/Информация : Advanced Video Codec
Профиль формата : High@L4.1
Параметр CABAC формата : Да
Параметр ReFrames формата : 5 кадров
Идентификатор кодека : V_MPEG4/ISO/AVC
Продолжительность : 1 ч. 40 м.
Битрейт : 14,9 Мбит/сек
Ширина : 1920 пикселей
Высота : 800 пикселей
Соотношение сторон : 2,40:1
Режим частоты кадров : Постоянный
Частота кадров : 23,976 кадра/сек
Цветовое пространство : YUV
Субдискретизация насыщенности : 4:2:0
Битовая глубина : 8 бит
Тип развёртки : Прогрессивная
Бит/(Пиксели*Кадры) : 0.406
Размер потока : 10,5 Гбайт (87%)
Заголовок : Release for HDCLUB
Библиотека кодирования : x264 core 142 r2491kMod 24e4fed
Настройки программы : cabac=1 / ref=5 / deblock=1:-3:-3 / analyse=0x3:0x133 / me=umh / subme=10 / psy=1 / fade_compensate=0.00 / psy_rd=1.05:0.00 / mixed_ref=1 / me_range=24 / chroma_me=1 / trellis=2 / 8x8dct=1 / cqm=0 / deadzone=21,11 / fast_pskip=0 / chroma_qp_offset=-2 / threads=12 / lookahead_threads=2 / sliced_threads=0 / nr=0 / decimate=0 / interlaced=0 / bluray_compat=0 / constrained_intra=0 / fgo=0 / bframes=9 / b_pyramid=2 / b_adapt=2 / b_bias=0 / direct=3 / weightb=1 / open_gop=0 / weightp=2 / keyint=250 / keyint_min=23 / scenecut=40 / intra_refresh=0 / rc=crf / mbtree=0 / crf=18.3000 / qcomp=0.75 / qpmin=0 / qpmax=69 / qpstep=4 / ip_ratio=1.30 / pb_ratio=1.20 / aq=1:0.85
Язык : English
Default : Да
Forced : Нет
DURATION : 01:40:24.978000000
NUMBER_OF_FRAMES : 144455
NUMBER_OF_BYTES : 11513059812
_STATISTICS_WRITING_APP : mkvmerge v7.6.0 ('Garden of Dreams') 64bit built on Feb 8 2015 13:04:34
_STATISTICS_WRITING_DATE_UTC : 2015-02-25 20:26:47
_STATISTICS_TAGS : BPS DURATION NUMBER_OF_FRAMES NUMBER_OF_BYTES
Аудио #1
Идентификатор : 2
Формат : AC-3
Формат/Информация : Audio Coding 3
Расширение режима : CM (complete main)
Параметр Endianness формата : Big
Идентификатор кодека : A_AC3
Продолжительность : 1 ч. 40 м.
Вид битрейта : Постоянный
Битрейт : 384 Кбит/сек
Каналы : 6 каналов
Расположение каналов : Front: L C R, Side: L R, LFE
Частота : 48,0 КГц
Битовая глубина : 16 бит
Метод сжатия : С потерями
Размер потока : 276 Мбайт (2%)
Язык : Russian
Default : Да
Forced : Нет
Аудио #2
Идентификатор : 3
Формат : DTS
Формат/Информация : Digital Theater Systems
Режим : 16
Параметр Endianness формата : Big
Идентификатор кодека : A_DTS
Продолжительность : 1 ч. 40 м.
Вид битрейта : Постоянный
Битрейт : 1509 Кбит/сек
Каналы : 6 каналов
Расположение каналов : Front: L C R, Side: L R, LFE
Частота : 48,0 КГц
Битовая глубина : 24 бит
Метод сжатия : С потерями
Размер потока : 1,06 Гбайт (9%)
Язык : English
Default : Нет
Forced : Нет
Текст #1
Идентификатор : 4
Формат : UTF-8
Идентификатор кодека : S_TEXT/UTF8
Идентификатор кодека/Информация : UTF-8 Plain Text
Заголовок : Матвеев
Язык : Russian
Default : Нет
Forced : Нет
Текст #2
Идентификатор : 5
Формат : UTF-8
Идентификатор кодека : S_TEXT/UTF8
Идентификатор кодека/Информация : UTF-8 Plain Text
Язык : English
Default : Нет
Forced : Нет
Текст #3
Идентификатор : 6
Формат : UTF-8
Идентификатор кодека : S_TEXT/UTF8
Идентификатор кодека/Информация : UTF-8 Plain Text
Язык : English
Default : Нет
Forced : Нет
Меню
00:00:00.000 : en:00:00:00.000
00:05:38.129 : en:00:05:38.129
00:09:36.158 : en:00:09:36.158
00:15:39.772 : en:00:15:39.772
00:20:37.653 : en:00:20:37.653
00:26:07.356 : en:00:26:07.356
00:31:22.422 : en:00:31:22.422
00:36:32.940 : en:00:36:32.940
00:40:39.478 : en:00:40:39.478
00:46:43.257 : en:00:46:43.257
00:49:52.530 : en:00:49:52.530
00:55:04.217 : en:00:55:04.217
01:00:38.925 : en:01:00:38.925
01:04:13.349 : en:01:04:13.349
01:09:22.740 : en:01:09:22.740
01:15:38.408 : en:01:15:38.408
01:20:08.052 : en:01:20:08.052
01:25:00.677 : en:01:25:00.677
01:30:15.201 : en:01:30:15.201
01:35:42.903 : en:01:35:42.903
Скриншоты
Скачать

Скачать торрент!

Как скачивать? · Что такое торрент? · Рейтинг и ограничения

Сайт не распространяет и не хранит электронные версии произведений, а лишь предоставляет доступ к создаваемому пользователями каталогу ссылок на торрент-файлы, которые содержат только списки хеш-сумм

[Профиль] [ЛС]
Показать сообщения:    
Ответить на тему

Текущее время: Сегодня 23:52

Часовой пояс: GMT + 4



Вы не можете начинать темы
Вы не можете отвечать на сообщения
Вы не можете редактировать свои сообщения
Вы не можете удалять свои сообщения
Вы не можете голосовать в опросах
Вы не можете прикреплять файлы к сообщениям
Вы не можете скачивать файлы