Секрет моего успеха / The Secret of My Success (Херберт Росс / Herbert Ross) [1987, США, комедия, Blu-ray Disc 1080p] [EUR] Dub + Original Eng + Sub Eng, Rus

Ответить на тему
 
Автор Сообщение

user ®

Стаж: 8 лет 2 месяца

Сообщений: 20008

Пост Пост: #1 от 01-Окт-2015 15:42

[Цитировать]

Секрет моего успеха / The Secret of My Succe$s
«There's no such thing as an overnight success. Brantley Foster took two weeks»
Год выпуска: 1987
Страна: США
Производство: Rastar Pictures, Universal Pictures
Жанр: Комедия
Продолжительность: 01:50:24
Перевод: Профессиональный (дублированный)
Оригинальная аудиодорожка: Английский
Субтитры: Английские, испанские, французские, португальские, итальянские, японские, польские, арабские, китайские, чешские, датские, голландские, финские, греческие, хинди, венгерские, корейские, норвежские, шведские, тайские, турецкие, русские
Режиссёр: Херберт Росс
В ролях: Майкл Дж. Фокс, Хелен Слейтер, Ричард Джордан, Маргарет Уиттон, Джон Пэнкоу, Кристофер Мёрни, Джерри Бэммен, Фред Гуинн, Кэрол Энн Сьюзи, Элизабет Франц и др.
Описание: Брантли Фостер — выпускник колледжа из Канзаса — переезжает в Нью-Йорк, чтобы начать карьеру финансиста. Однако компанию, в которой он планировал работать, покупает другая корпорация, и нашему герою отказывают. После нескольких неудачных попыток найти другую работу Брантли устраивается на должность разносчика писем в компанию своего дяди Говарда Прескота.


Сэмпл
Качество: Blu-ray Disc 1080p
Формат: BDMV
Видео: MPEG-4 AVC: 29992 kbps / 1080p / 23.976 fps / 16:9
Аудио: English: DTS-HD MA / 2.0 / 48 kHz / 2083 kbps / 24-bit (DTS Core: 2.0 / 48 kHz / 1509 kbps / 24-bit) | Оригинальный
Аудио: Spanish: DTS / 2.0 / 48 kHz / 448 kbps / 24-bit
Аудио: French: DTS / 2.0 / 48 kHz / 768 kbps / 24-bit
Аудио: Portuguese: DTS / 2.0 / 48 kHz / 448 kbps / 24-bit
Аудио: Spanish: DTS / 2.0 / 48 kHz / 768 kbps / 24-bit
Аудио: Italian: DTS / 2.0 / 48 kHz / 768 kbps / 24-bit
Аудио: Japanese: DTS / 2.0 / 48 kHz / 448 kbps / 24-bit
Аудио: Polish: DTS / 2.0 / 48 kHz / 768 kbps / 24-bit
Аудио: Russian: DTS / 2.0 / 48 kHz / 768 kbps / 24-bit | Дубляж
BDInfo
Disc Title: THE_SECRET_OF_MY_SUCCESSDisc Size: 35 209 559 569 bytesProtection: AACSBD-Java: YesBDInfo: 0.5.8
Notes:
BDINFO HOME: Cinema Squid http://www.cinemasquid.com/blu-ray/tools/bdinfo
INCLUDES FORUMS REPORT FOR: AVS Forum Blu-ray Audio and Video Specifications Thread http://www.avsforum.com/avs-vb/showthread.php?t=1155731
********************PLAYLIST: 00800.MPLS********************
Total   Video
Title                                                           Codec   Length  Movie Size      Disc Size       Bitrate Bitrate Main Audio Track                          Secondary Audio Track
-----                                                           ------  ------- --------------  --------------  ------- ------- ------------------                        ---------------------
00800.MPLS                                                      AVC     1:50:24 33 844 113 408  35 209 559 569  40.87   29.99   DTS-HD Master 2.0 2083Kbps (48kHz/24-bit)
DISC INFO:
Disc Title:     THE_SECRET_OF_MY_SUCCESS
Disc Size:      35 209 559 569 bytes
Protection:     AACS
BD-Java:        Yes
BDInfo:         0.5.8
PLAYLIST REPORT:
Name:                   00800.MPLS
Length:                 1:50:24.659 (h:m:s.ms)
Size:                   33 844 113 408 bytes
Total Bitrate:          40.87 Mbps
VIDEO:
Codec                   Bitrate             Description
-----                   -------             -----------
MPEG-4 AVC Video        29992 kbps          1080p / 23.976 fps / 16:9 / High Profile 4.1
AUDIO:
Codec                           Language        Bitrate         Description
-----                           --------        -------         -----------
DTS-HD Master Audio             English         2083 kbps       2.0 / 48 kHz / 2083 kbps / 24-bit (DTS Core: 2.0 / 48 kHz / 1509 kbps / 24-bit)
DTS Audio                       Spanish         448 kbps        2.0 / 48 kHz / 448 kbps / 24-bit
DTS Audio                       French          768 kbps        2.0 / 48 kHz / 768 kbps / 24-bit
DTS Audio                       Portuguese      448 kbps        2.0 / 48 kHz / 448 kbps / 24-bit
DTS Audio                       Spanish         768 kbps        2.0 / 48 kHz / 768 kbps / 24-bit
DTS Audio                       Italian         768 kbps        2.0 / 48 kHz / 768 kbps / 24-bit
DTS Audio                       Japanese        448 kbps        2.0 / 48 kHz / 448 kbps / 24-bit
DTS Audio                       Polish          768 kbps        2.0 / 48 kHz / 768 kbps / 24-bit
DTS Audio                       Russian         768 kbps        2.0 / 48 kHz / 768 kbps / 24-bit
SUBTITLES:
Codec                           Language        Bitrate         Description
-----                           --------        -------         -----------
Presentation Graphics           English         54.088 kbps
Presentation Graphics           Spanish         40.642 kbps
Presentation Graphics           French          41.605 kbps
Presentation Graphics           Portuguese      35.803 kbps
Presentation Graphics           Spanish         39.544 kbps
Presentation Graphics           French          41.296 kbps
Presentation Graphics           Italian         39.693 kbps
Presentation Graphics           Japanese        21.581 kbps
Presentation Graphics           Polish          41.980 kbps
Presentation Graphics           Russian         39.597 kbps
Presentation Graphics           Arabic          22.356 kbps
Presentation Graphics           Chinese         31.805 kbps
Presentation Graphics           Chinese         31.452 kbps
Presentation Graphics           Czech           38.984 kbps
Presentation Graphics           Danish          34.877 kbps
Presentation Graphics           Dutch           26.161 kbps
Presentation Graphics           Finnish         32.270 kbps
Presentation Graphics           Greek           41.475 kbps
Presentation Graphics           Hindi           32.602 kbps
Presentation Graphics           Hungarian       40.817 kbps
Presentation Graphics           Korean          27.380 kbps
Presentation Graphics           Norwegian       30.426 kbps
Presentation Graphics           Portuguese      41.989 kbps
Presentation Graphics           Swedish         25.902 kbps
Presentation Graphics           Thai            31.478 kbps
Presentation Graphics           Turkish         42.187 kbps
Presentation Graphics           Spanish         0.188 kbps
Presentation Graphics           Portuguese      0.078 kbps
Presentation Graphics           French          0.058 kbps
Presentation Graphics           Italian         0.176 kbps
Presentation Graphics           Japanese        2.731 kbps
Presentation Graphics           Russian         0.179 kbps
FILES:
Name            Time In         Length          Size            Total Bitrate
----            -------         ------          ----            -------------
00023.M2TS      0:00:00.000     1:50:24.659     33 844 113 408  40 870
CHAPTERS:
Number          Time In         Length          Avg Video Rate  Max 1-Sec Rate  Max 1-Sec Time  Max 5-Sec Rate  Max 5-Sec Time  Max 10Sec Rate  Max 10Sec Time  Avg Frame Size  Max Frame Size  Max Frame Time
------          -------         ------          --------------  --------------  --------------  --------------  --------------  --------------  --------------  --------------  --------------  --------------
1               0:00:00.000     0:04:53.668     29 164 kbps     34 442 kbps     00:00:14.472    31 964 kbps     00:01:38.014    31 891 kbps     00:01:29.339    152 028 bytes   360 808 bytes   00:00:15.056
2               0:04:53.668     0:05:32.040     30 737 kbps     33 015 kbps     00:08:17.872    31 998 kbps     00:08:14.076    31 856 kbps     00:05:22.613    160 251 bytes   269 981 bytes   00:08:13.367
3               0:10:25.708     0:07:16.352     29 830 kbps     32 888 kbps     00:10:57.281    31 997 kbps     00:10:53.235    31 887 kbps     00:10:48.314    155 521 bytes   273 311 bytes   00:10:58.240
4               0:17:42.061     0:05:27.994     29 897 kbps     32 976 kbps     00:19:54.985    31 987 kbps     00:20:19.468    31 891 kbps     00:20:14.463    155 869 bytes   327 622 bytes   00:19:58.989
5               0:23:10.055     0:09:28.067     30 241 kbps     33 531 kbps     00:27:09.127    32 100 kbps     00:30:39.546    31 931 kbps     00:29:50.830    157 663 bytes   327 026 bytes   00:27:10.003
6               0:32:38.122     0:02:13.925     29 989 kbps     33 000 kbps     00:34:30.818    31 832 kbps     00:34:45.541    31 783 kbps     00:34:41.162    156 349 bytes   339 355 bytes   00:34:31.778
7               0:34:52.048     0:04:44.117     29 275 kbps     32 366 kbps     00:37:45.513    31 879 kbps     00:34:52.673    31 679 kbps     00:37:56.065    152 625 bytes   353 350 bytes   00:37:54.480
8               0:39:36.165     0:13:07.703     30 274 kbps     33 537 kbps     00:48:15.392    31 934 kbps     00:43:13.549    31 866 kbps     00:43:08.544    157 836 bytes   335 396 bytes   00:39:38.125
9               0:52:43.869     0:04:32.021     29 904 kbps     32 557 kbps     00:57:14.889    31 882 kbps     00:57:10.885    31 837 kbps     00:56:29.094    155 903 bytes   282 079 bytes   00:57:15.890
10              0:57:15.890     0:04:52.583     30 508 kbps     32 428 kbps     00:59:28.189    31 912 kbps     00:58:10.987    31 818 kbps     00:58:44.896    159 055 bytes   287 748 bytes   00:57:18.685
11              1:02:08.474     0:08:56.035     28 802 kbps     32 688 kbps     01:07:37.053    31 959 kbps     01:07:33.215    31 887 kbps     01:03:50.743    150 159 bytes   301 948 bytes   01:07:34.467
12              1:11:04.510     0:03:24.495     29 706 kbps     32 456 kbps     01:12:22.713    31 899 kbps     01:11:47.803    31 830 kbps     01:11:06.929    154 873 bytes   262 140 bytes   01:12:28.677
13              1:14:29.006     0:06:32.225     31 166 kbps     32 672 kbps     01:18:58.817    31 940 kbps     01:18:08.767    31 848 kbps     01:18:49.891    162 487 bytes   250 220 bytes   01:21:01.231
14              1:21:01.231     0:02:31.693     30 138 kbps     32 501 kbps     01:21:13.076    31 927 kbps     01:21:09.072    31 839 kbps     01:21:04.192    157 127 bytes   264 823 bytes   01:22:20.018
15              1:23:32.924     0:05:53.978     31 453 kbps     33 621 kbps     01:25:25.537    32 130 kbps     01:25:56.484    31 977 kbps     01:25:51.479    163 982 bytes   382 186 bytes   01:25:27.497
16              1:29:26.903     0:07:49.844     28 735 kbps     32 537 kbps     01:34:43.219    31 885 kbps     01:31:50.838    31 831 kbps     01:31:48.836    149 812 bytes   251 245 bytes   01:37:16.747
17              1:37:16.747     0:02:12.882     31 742 kbps     32 723 kbps     01:38:46.921    31 944 kbps     01:39:12.071    31 860 kbps     01:39:08.067    165 488 bytes   260 301 bytes   01:37:20.751
18              1:39:29.630     0:05:08.683     31 773 kbps     32 732 kbps     01:39:47.773    31 986 kbps     01:43:54.019    31 880 kbps     01:41:57.736    165 648 bytes   260 750 bytes   01:40:15.801
19              1:44:38.313     0:01:51.152     31 460 kbps     32 638 kbps     01:45:01.295    31 948 kbps     01:44:52.160    31 871 kbps     01:44:47.155    164 019 bytes   246 515 bytes   01:45:21.440
20              1:46:29.466     0:03:55.193     26 398 kbps     35 350 kbps     01:50:10.312    31 692 kbps     01:50:10.270    29 037 kbps     01:46:47.067    137 653 bytes   636 057 bytes   01:50:10.979
********************PLAYLIST: 00115.MPLS********************
Total   Video
Title                                                           Codec   Length  Movie Size      Disc Size       Bitrate Bitrate Main Audio Track                          Secondary Audio Track
-----                                                           ------  ------- --------------  --------------  ------- ------- ------------------                        ---------------------
00115.MPLS                                                      MPEG-2  0:01:00 2 420 736       35 209 559 569  0.32    0.13
DISC INFO:
Disc Title:     THE_SECRET_OF_MY_SUCCESS
Disc Size:      35 209 559 569 bytes
Protection:     AACS
BD-Java:        Yes
BDInfo:         0.5.8
PLAYLIST REPORT:
Name:                   00115.MPLS
Length:                 0:01:00.101 (h:m:s.ms)
Size:                   2 420 736 bytes
Total Bitrate:          0.32 Mbps
VIDEO:
Codec                   Bitrate             Description
-----                   -------             -----------
MPEG-2 Video            130 kbps            1080p / 23.976 fps / 16:9
FILES:
Name            Time In         Length          Size            Total Bitrate
----            -------         ------          ----            -------------
00042.M2TS      0:00:00.000     0:00:10.010     310 656         124
00042.M2TS      0:00:10.010     0:00:10.009     312 960         125
00042.M2TS      0:00:20.020     0:00:10.010     282 240         113
00042.M2TS      0:00:30.030     0:00:10.009     281 856         113
00042.M2TS      0:00:40.040     0:00:10.009     340 608         136
00042.M2TS      0:00:50.050     0:00:10.010     615 936         247
00042.M2TS      0:01:00.060     0:00:00.041     276 480         53 028
CHAPTERS:
Number          Time In         Length          Avg Video Rate  Max 1-Sec Rate  Max 1-Sec Time  Max 5-Sec Rate  Max 5-Sec Time  Max 10Sec Rate  Max 10Sec Time  Avg Frame Size  Max Frame Size  Max Frame Time
------          -------         ------          --------------  --------------  --------------  --------------  --------------  --------------  --------------  --------------  --------------  --------------
1               0:00:00.000     0:00:10.010     378 kbps        190 kbps        00:00:09.968    190 kbps        00:00:09.968    190 kbps        00:00:09.968    236 744 bytes   238 319 bytes   00:00:19.978
2               0:00:10.010     0:00:10.009     167 kbps        167 kbps        00:00:19.978    167 kbps        00:00:19.978    167 kbps        00:00:19.978    208 546 bytes   208 546 bytes   00:00:29.988
3               0:00:20.020     0:00:10.010     167 kbps        167 kbps        00:00:29.988    167 kbps        00:00:29.988    167 kbps        00:00:29.988    208 546 bytes   208 546 bytes   00:00:39.998
4               0:00:30.030     0:00:10.009     211 kbps        211 kbps        00:00:39.998    211 kbps        00:00:39.998    211 kbps        00:00:39.998    264 381 bytes   264 381 bytes   00:00:50.008
5               0:00:40.040     0:00:10.009     211 kbps        211 kbps        00:00:50.008    211 kbps        00:00:50.008    211 kbps        00:00:50.008    263 738 bytes   263 738 bytes   00:01:00.018
6               0:00:50.050     0:00:10.051     4 380 kbps      420 kbps        00:00:39.956    420 kbps        00:00:39.956    420 kbps        00:00:39.956    250 156 bytes   264 381 bytes   00:00:50.008
********************PLAYLIST: 01055.MPLS********************
Total   Video
Title                                                           Codec   Length  Movie Size      Disc Size       Bitrate Bitrate Main Audio Track                          Secondary Audio Track
-----                                                           ------  ------- --------------  --------------  ------- ------- ------------------                        ---------------------
01055.MPLS                                                      AVC     0:01:00 211 918 848     35 209 559 569  28.25   27.00
DISC INFO:
Disc Title:     THE_SECRET_OF_MY_SUCCESS
Disc Size:      35 209 559 569 bytes
Protection:     AACS
BD-Java:        Yes
BDInfo:         0.5.8
PLAYLIST REPORT:
Name:                   01055.MPLS
Length:                 0:01:00.018 (h:m:s.ms)
Size:                   211 918 848 bytes
Total Bitrate:          28.25 Mbps
VIDEO:
Codec                   Bitrate             Description
-----                   -------             -----------
MPEG-4 AVC Video        27000 kbps          1080p / 23.976 fps / 16:9 / High Profile 4.1
FILES:
Name            Time In         Length          Size            Total Bitrate
----            -------         ------          ----            -------------
00016.M2TS      0:00:00.000     0:01:00.018     211 918 848     28 247
CHAPTERS:
Number          Time In         Length          Avg Video Rate  Max 1-Sec Rate  Max 1-Sec Time  Max 5-Sec Rate  Max 5-Sec Time  Max 10Sec Rate  Max 10Sec Time  Avg Frame Size  Max Frame Size  Max Frame Time
------          -------         ------          --------------  --------------  --------------  --------------  --------------  --------------  --------------  --------------  --------------  --------------
1               0:00:00.000     0:01:00.018     27 000 kbps     28 740 kbps     00:00:58.016    27 348 kbps     00:00:54.012    27 174 kbps     00:00:49.007    140 766 bytes   358 506 bytes   00:00:59.017
********************PLAYLIST: 01056.MPLS********************
Total   Video
Title                                                           Codec   Length  Movie Size      Disc Size       Bitrate Bitrate Main Audio Track                          Secondary Audio Track
-----                                                           ------  ------- --------------  --------------  ------- ------- ------------------                        ---------------------
01056.MPLS                                                      AVC     0:01:00 211 918 848     35 209 559 569  28.25   27.00
DISC INFO:
Disc Title:     THE_SECRET_OF_MY_SUCCESS
Disc Size:      35 209 559 569 bytes
Protection:     AACS
BD-Java:        Yes
BDInfo:         0.5.8
PLAYLIST REPORT:
Name:                   01056.MPLS
Length:                 0:01:00.018 (h:m:s.ms)
Size:                   211 918 848 bytes
Total Bitrate:          28.25 Mbps
VIDEO:
Codec                   Bitrate             Description
-----                   -------             -----------
MPEG-4 AVC Video        27000 kbps          1080p / 23.976 fps / 16:9 / High Profile 4.1
FILES:
Name            Time In         Length          Size            Total Bitrate
----            -------         ------          ----            -------------
00017.M2TS      0:00:00.000     0:01:00.018     211 918 848     28 247
CHAPTERS:
Number          Time In         Length          Avg Video Rate  Max 1-Sec Rate  Max 1-Sec Time  Max 5-Sec Rate  Max 5-Sec Time  Max 10Sec Rate  Max 10Sec Time  Avg Frame Size  Max Frame Size  Max Frame Time
------          -------         ------          --------------  --------------  --------------  --------------  --------------  --------------  --------------  --------------  --------------  --------------
1               0:00:00.000     0:01:00.018     27 000 kbps     28 740 kbps     00:00:58.016    27 348 kbps     00:00:54.012    27 174 kbps     00:00:49.007    140 766 bytes   358 506 bytes   00:00:59.017

Скриншот с названием фильма

Скриншоты
Скачать

Скачать торрент!

Как скачивать? · Что такое торрент? · Рейтинг и ограничения

Сайт не распространяет и не хранит электронные версии произведений, а лишь предоставляет доступ к создаваемому пользователями каталогу ссылок на торрент-файлы, которые содержат только списки хеш-сумм

[Профиль] [ЛС]
Показать сообщения:    
Ответить на тему

Текущее время: Сегодня 00:53

Часовой пояс: GMT + 4



Вы не можете начинать темы
Вы не можете отвечать на сообщения
Вы не можете редактировать свои сообщения
Вы не можете удалять свои сообщения
Вы не можете голосовать в опросах
Вы не можете прикреплять файлы к сообщениям
Вы не можете скачивать файлы