Жадность / Greedy (Джонатан Линн / Jonathan Lynn) [1994, США, комедия, Blu-ray Disc 1080p] [EUR] MVO + Original Eng + Sub Eng, Rus

Ответить на тему
 
Автор Сообщение

user ®

Стаж: 7 лет 7 месяцев

Сообщений: 20008

Пост Пост: #1 от 01-Окт-2015 15:42

[Цитировать]

Жадность / Greedy
«Where there's a will...there's a relative»
Год выпуска: 1994
Страна: США
Производство: Imagine Entertainment
Жанр: Комедия
Продолжительность: 01:52:21
Перевод: Профессиональный (многоголосый закадровый)
Оригинальная аудиодорожка: Английский
Субтитры: Английские, испанские, французские, португальские, немецкие, итальянские, японские, польские, арабские, китайские, чешские, датские, голландские, финские, греческие, хинди, венгерские, корейские, норвежские, шведские, тайские, турецкие, русские
Режиссёр: Джонатан Линн
В ролях: Майкл Дж. Фокс, Кирк Дуглас, Нэнси Трэвис, Оливия д’Або, Фил Хартмен, Эд Бегли мл., Джер Бернс, Коллин Кэмп, Боб Бэлабан, Джойс Хайзер и др.
Описание: Жадность часто толкает на неблаговидные поступки в погоне за вожделенными деньгами. Это отлично понимает старый лукавый миллионер Джо МакТиг. У него нет своих детей и прямых наследников. Зато есть куча дальних и близких родственников, стаей кружащих вокруг него в надежде отхватить лакомый кусок от дядюшкиного наследства. Старик играет с ними, как кошка с мышками. Он нанимает молоденькую симпатичную сиделку Молли Ричардсон и явно к ней благоволит. В стане родственников смятение. Молли — прямая и явная угроза их планам. Надо действовать!


Сэмпл
Качество: Blu-ray Disc 1080p
Формат: BDMV
Видео: MPEG-4 AVC: 32329 kbps / 1080p / 23.976 fps / 16:9
Аудио: English: DTS-HD MA / 5.1 / 48 kHz / 3963 kbps / 24-bit (DTS Core: 5.1 / 48 kHz / 1509 kbps / 24-bit) | Оригинальный
Аудио: Spanish: DTS / 2.0 / 48 kHz / 768 kbps / 24-bit
Аудио: French: DTS / 2.0 / 48 kHz / 768 kbps / 24-bit
Аудио: Portuguese: DTS / 2.0 / 48 kHz / 768 kbps / 24-bit
Аудио: Spanish: DTS / 2.0 / 48 kHz / 768 kbps / 24-bit
Аудио: German: DTS / 2.0 / 48 kHz / 768 kbps / 24-bit
Аудио: Italian: DTS / 2.0 / 48 kHz / 768 kbps / 24-bit
Аудио: Japanese: DTS / 2.0 / 48 kHz / 768 kbps / 24-bit
Аудио: Polish: DTS / 2.0 / 48 kHz / 448 kbps / 24-bit
Аудио: Russian: DTS / 2.0 / 48 kHz / 448 kbps / 24-bit | Многоголосый закадровый
BDInfo
Disc Title: GREEDYDisc Size: 40 502 379 532 bytesProtection: AACSBD-Java: YesBDInfo: 0.5.8
Notes:
BDINFO HOME: Cinema Squid http://www.cinemasquid.com/blu-ray/tools/bdinfo
INCLUDES FORUMS REPORT FOR: AVS Forum Blu-ray Audio and Video Specifications Thread http://www.avsforum.com/avs-vb/showthread.php?t=1155731
********************PLAYLIST: 00800.MPLS********************
Total   Video
Title                                                           Codec   Length  Movie Size      Disc Size       Bitrate Bitrate Main Audio Track                          Secondary Audio Track
-----                                                           ------  ------- --------------  --------------  ------- ------- ------------------                        ---------------------
00800.MPLS                                                      AVC     1:52:21 39 249 905 664  40 502 379 532  46.58   32.33   DTS-HD Master 5.1 3963Kbps (48kHz/24-bit)
DISC INFO:
Disc Title:     GREEDY
Disc Size:      40 502 379 532 bytes
Protection:     AACS
BD-Java:        Yes
BDInfo:         0.5.8
PLAYLIST REPORT:
Name:                   00800.MPLS
Length:                 1:52:21.776 (h:m:s.ms)
Size:                   39 249 905 664 bytes
Total Bitrate:          46.58 Mbps
VIDEO:
Codec                   Bitrate             Description
-----                   -------             -----------
MPEG-4 AVC Video        32329 kbps          1080p / 23.976 fps / 16:9 / High Profile 4.1
AUDIO:
Codec                           Language        Bitrate         Description
-----                           --------        -------         -----------
DTS-HD Master Audio             English         3963 kbps       5.1 / 48 kHz / 3963 kbps / 24-bit (DTS Core: 5.1 / 48 kHz / 1509 kbps / 24-bit)
DTS Audio                       Spanish         768 kbps        2.0 / 48 kHz / 768 kbps / 24-bit
DTS Audio                       French          768 kbps        2.0 / 48 kHz / 768 kbps / 24-bit
DTS Audio                       Portuguese      768 kbps        2.0 / 48 kHz / 768 kbps / 24-bit
DTS Audio                       Spanish         768 kbps        2.0 / 48 kHz / 768 kbps / 24-bit
DTS Audio                       German          768 kbps        2.0 / 48 kHz / 768 kbps / 24-bit
DTS Audio                       Italian         768 kbps        2.0 / 48 kHz / 768 kbps / 24-bit
DTS Audio                       Japanese        768 kbps        2.0 / 48 kHz / 768 kbps / 24-bit
DTS Audio                       Polish          448 kbps        2.0 / 48 kHz / 448 kbps / 24-bit
DTS Audio                       Russian         448 kbps        2.0 / 48 kHz / 448 kbps / 24-bit
SUBTITLES:
Codec                           Language        Bitrate         Description
-----                           --------        -------         -----------
Presentation Graphics           English         49.529 kbps
Presentation Graphics           Spanish         40.631 kbps
Presentation Graphics           French          41.386 kbps
Presentation Graphics           Portuguese      37.448 kbps
Presentation Graphics           Spanish         44.065 kbps
Presentation Graphics           French          40.778 kbps
Presentation Graphics           German          44.924 kbps
Presentation Graphics           Italian         39.008 kbps
Presentation Graphics           Japanese        29.231 kbps
Presentation Graphics           Polish          38.369 kbps
Presentation Graphics           Russian         41.100 kbps
Presentation Graphics           Arabic          22.181 kbps
Presentation Graphics           Chinese         33.225 kbps
Presentation Graphics           Chinese         35.928 kbps
Presentation Graphics           Czech           39.951 kbps
Presentation Graphics           Danish          41.110 kbps
Presentation Graphics           Dutch           39.673 kbps
Presentation Graphics           Finnish         39.938 kbps
Presentation Graphics           Greek           45.829 kbps
Presentation Graphics           Hindi           34.753 kbps
Presentation Graphics           Hungarian       41.596 kbps
Presentation Graphics           Korean          29.769 kbps
Presentation Graphics           Norwegian       40.991 kbps
Presentation Graphics           Portuguese      42.521 kbps
Presentation Graphics           Swedish         39.966 kbps
Presentation Graphics           Thai            33.308 kbps
Presentation Graphics           Turkish         43.345 kbps
Presentation Graphics           Portuguese      1.265 kbps
Presentation Graphics           French          1.545 kbps
Presentation Graphics           German          1.743 kbps
Presentation Graphics           Japanese        1.015 kbps
Presentation Graphics           Spanish         1.705 kbps
FILES:
Name            Time In         Length          Size            Total Bitrate
----            -------         ------          ----            -------------
00023.M2TS      0:00:00.000     1:52:21.776     39 249 905 664  46 575
CHAPTERS:
Number          Time In         Length          Avg Video Rate  Max 1-Sec Rate  Max 1-Sec Time  Max 5-Sec Rate  Max 5-Sec Time  Max 10Sec Rate  Max 10Sec Time  Avg Frame Size  Max Frame Size  Max Frame Time
------          -------         ------          --------------  --------------  --------------  --------------  --------------  --------------  --------------  --------------  --------------  --------------
1               0:00:00.000     0:03:01.598     32 728 kbps     42 667 kbps     00:02:31.317    34 939 kbps     00:02:27.313    33 831 kbps     00:02:22.267    170 587 bytes   530 941 bytes   00:00:20.061
2               0:03:01.598     0:05:04.929     32 418 kbps     35 147 kbps     00:04:55.920    33 219 kbps     00:04:51.958    32 989 kbps     00:04:46.911    169 013 bytes   396 772 bytes   00:04:56.796
3               0:08:06.527     0:05:23.781     32 785 kbps     34 559 kbps     00:09:19.642    33 111 kbps     00:08:08.821    32 954 kbps     00:10:28.628    170 926 bytes   359 216 bytes   00:08:15.703
4               0:13:30.309     0:02:05.166     32 731 kbps     34 615 kbps     00:13:44.573    33 174 kbps     00:13:40.611    32 946 kbps     00:14:25.698    170 643 bytes   383 377 bytes   00:13:45.491
5               0:15:35.476     0:06:49.867     32 661 kbps     34 690 kbps     00:19:34.882    33 204 kbps     00:19:30.752    32 992 kbps     00:19:25.914    170 281 bytes   370 573 bytes   00:17:15.367
6               0:22:25.344     0:11:37.988     32 739 kbps     34 580 kbps     00:29:40.570    33 139 kbps     00:22:48.533    32 984 kbps     00:22:43.445    170 689 bytes   365 645 bytes   00:24:06.403
7               0:34:03.332     0:04:34.691     32 752 kbps     35 649 kbps     00:35:08.606    33 314 kbps     00:35:04.852    33 087 kbps     00:34:59.722    170 753 bytes   356 887 bytes   00:38:38.024
8               0:38:38.024     0:09:19.350     31 849 kbps     35 615 kbps     00:40:59.999    33 373 kbps     00:40:00.022    33 071 kbps     00:40:03.734    166 044 bytes   496 306 bytes   00:39:59.397
9               0:47:57.374     0:02:46.124     32 765 kbps     39 309 kbps     00:47:58.375    33 130 kbps     00:48:07.676    32 969 kbps     00:48:02.546    170 822 bytes   363 174 bytes   00:47:57.499
10              0:50:43.498     0:11:39.865     31 856 kbps     34 912 kbps     00:59:53.673    33 214 kbps     00:59:49.377    32 982 kbps     00:59:44.497    166 083 bytes   451 205 bytes   01:02:23.364
11              1:02:23.364     0:03:16.613     32 444 kbps     34 748 kbps     01:03:56.707    33 201 kbps     01:03:52.787    32 949 kbps     01:03:47.782    169 150 bytes   443 247 bytes   01:02:26.367
12              1:05:39.977     0:08:47.109     32 197 kbps     35 181 kbps     01:07:06.313    33 321 kbps     01:06:37.159    32 983 kbps     01:08:48.707    167 861 bytes   413 763 bytes   01:14:27.087
13              1:14:27.087     0:06:05.281     32 710 kbps     34 570 kbps     01:18:49.433    33 097 kbps     01:20:09.513    32 947 kbps     01:18:40.465    170 533 bytes   419 353 bytes   01:14:28.088
14              1:20:32.369     0:06:04.447     32 762 kbps     34 986 kbps     01:25:18.613    33 170 kbps     01:25:14.526    32 967 kbps     01:25:09.646    170 804 bytes   370 517 bytes   01:24:32.442
15              1:26:36.816     0:08:59.247     32 778 kbps     34 582 kbps     01:31:19.515    33 164 kbps     01:28:05.947    32 969 kbps     01:29:44.879    170 891 bytes   334 800 bytes   01:28:10.910
16              1:35:36.063     0:06:47.073     31 514 kbps     34 294 kbps     01:38:05.129    33 086 kbps     01:35:46.866    32 932 kbps     01:36:15.019    164 299 bytes   394 245 bytes   01:40:17.428
17              1:42:23.137     0:06:18.336     32 432 kbps     34 290 kbps     01:47:30.444    33 097 kbps     01:48:31.004    32 931 kbps     01:43:23.363    169 088 bytes   333 637 bytes   01:46:37.724
18              1:48:41.473     0:03:40.303     30 014 kbps     35 821 kbps     01:52:13.601    33 661 kbps     01:52:15.103    32 845 kbps     01:49:47.080    156 511 bytes   636 571 bytes   01:52:16.312
********************PLAYLIST: 00115.MPLS********************
Total   Video
Title                                                           Codec   Length  Movie Size      Disc Size       Bitrate Bitrate Main Audio Track                          Secondary Audio Track
-----                                                           ------  ------- --------------  --------------  ------- ------- ------------------                        ---------------------
00115.MPLS                                                      MPEG-2  0:01:00 2 420 736       40 502 379 532  0.32    0.13
DISC INFO:
Disc Title:     GREEDY
Disc Size:      40 502 379 532 bytes
Protection:     AACS
BD-Java:        Yes
BDInfo:         0.5.8
PLAYLIST REPORT:
Name:                   00115.MPLS
Length:                 0:01:00.101 (h:m:s.ms)
Size:                   2 420 736 bytes
Total Bitrate:          0.32 Mbps
VIDEO:
Codec                   Bitrate             Description
-----                   -------             -----------
MPEG-2 Video            130 kbps            1080p / 23.976 fps / 16:9
FILES:
Name            Time In         Length          Size            Total Bitrate
----            -------         ------          ----            -------------
00042.M2TS      0:00:00.000     0:00:10.010     310 656         124
00042.M2TS      0:00:10.010     0:00:10.009     312 960         125
00042.M2TS      0:00:20.020     0:00:10.010     282 240         113
00042.M2TS      0:00:30.030     0:00:10.009     281 856         113
00042.M2TS      0:00:40.040     0:00:10.009     340 608         136
00042.M2TS      0:00:50.050     0:00:10.010     615 936         247
00042.M2TS      0:01:00.060     0:00:00.041     276 480         53 028
CHAPTERS:
Number          Time In         Length          Avg Video Rate  Max 1-Sec Rate  Max 1-Sec Time  Max 5-Sec Rate  Max 5-Sec Time  Max 10Sec Rate  Max 10Sec Time  Avg Frame Size  Max Frame Size  Max Frame Time
------          -------         ------          --------------  --------------  --------------  --------------  --------------  --------------  --------------  --------------  --------------  --------------
1               0:00:00.000     0:00:10.010     378 kbps        190 kbps        00:00:09.968    190 kbps        00:00:09.968    190 kbps        00:00:09.968    236 744 bytes   238 319 bytes   00:00:19.978
2               0:00:10.010     0:00:10.009     167 kbps        167 kbps        00:00:19.978    167 kbps        00:00:19.978    167 kbps        00:00:19.978    208 546 bytes   208 546 bytes   00:00:29.988
3               0:00:20.020     0:00:10.010     167 kbps        167 kbps        00:00:29.988    167 kbps        00:00:29.988    167 kbps        00:00:29.988    208 546 bytes   208 546 bytes   00:00:39.998
4               0:00:30.030     0:00:10.009     211 kbps        211 kbps        00:00:39.998    211 kbps        00:00:39.998    211 kbps        00:00:39.998    264 381 bytes   264 381 bytes   00:00:50.008
5               0:00:40.040     0:00:10.009     211 kbps        211 kbps        00:00:50.008    211 kbps        00:00:50.008    211 kbps        00:00:50.008    263 738 bytes   263 738 bytes   00:01:00.018
6               0:00:50.050     0:00:10.051     4 380 kbps      420 kbps        00:00:39.956    420 kbps        00:00:39.956    420 kbps        00:00:39.956    250 156 bytes   264 381 bytes   00:00:50.008
********************PLAYLIST: 01055.MPLS********************
Total   Video
Title                                                           Codec   Length  Movie Size      Disc Size       Bitrate Bitrate Main Audio Track                          Secondary Audio Track
-----                                                           ------  ------- --------------  --------------  ------- ------- ------------------                        ---------------------
01055.MPLS                                                      AVC     0:01:00 211 918 848     40 502 379 532  28.25   27.00
DISC INFO:
Disc Title:     GREEDY
Disc Size:      40 502 379 532 bytes
Protection:     AACS
BD-Java:        Yes
BDInfo:         0.5.8
PLAYLIST REPORT:
Name:                   01055.MPLS
Length:                 0:01:00.018 (h:m:s.ms)
Size:                   211 918 848 bytes
Total Bitrate:          28.25 Mbps
VIDEO:
Codec                   Bitrate             Description
-----                   -------             -----------
MPEG-4 AVC Video        27000 kbps          1080p / 23.976 fps / 16:9 / High Profile 4.1
FILES:
Name            Time In         Length          Size            Total Bitrate
----            -------         ------          ----            -------------
00016.M2TS      0:00:00.000     0:01:00.018     211 918 848     28 247
CHAPTERS:
Number          Time In         Length          Avg Video Rate  Max 1-Sec Rate  Max 1-Sec Time  Max 5-Sec Rate  Max 5-Sec Time  Max 10Sec Rate  Max 10Sec Time  Avg Frame Size  Max Frame Size  Max Frame Time
------          -------         ------          --------------  --------------  --------------  --------------  --------------  --------------  --------------  --------------  --------------  --------------
1               0:00:00.000     0:01:00.018     27 000 kbps     28 740 kbps     00:00:58.016    27 348 kbps     00:00:54.012    27 174 kbps     00:00:49.007    140 766 bytes   358 506 bytes   00:00:59.017
********************PLAYLIST: 01056.MPLS********************
Total   Video
Title                                                           Codec   Length  Movie Size      Disc Size       Bitrate Bitrate Main Audio Track                          Secondary Audio Track
-----                                                           ------  ------- --------------  --------------  ------- ------- ------------------                        ---------------------
01056.MPLS                                                      AVC     0:01:00 211 918 848     40 502 379 532  28.25   27.00
DISC INFO:
Disc Title:     GREEDY
Disc Size:      40 502 379 532 bytes
Protection:     AACS
BD-Java:        Yes
BDInfo:         0.5.8
PLAYLIST REPORT:
Name:                   01056.MPLS
Length:                 0:01:00.018 (h:m:s.ms)
Size:                   211 918 848 bytes
Total Bitrate:          28.25 Mbps
VIDEO:
Codec                   Bitrate             Description
-----                   -------             -----------
MPEG-4 AVC Video        27000 kbps          1080p / 23.976 fps / 16:9 / High Profile 4.1
FILES:
Name            Time In         Length          Size            Total Bitrate
----            -------         ------          ----            -------------
00017.M2TS      0:00:00.000     0:01:00.018     211 918 848     28 247
CHAPTERS:
Number          Time In         Length          Avg Video Rate  Max 1-Sec Rate  Max 1-Sec Time  Max 5-Sec Rate  Max 5-Sec Time  Max 10Sec Rate  Max 10Sec Time  Avg Frame Size  Max Frame Size  Max Frame Time
------          -------         ------          --------------  --------------  --------------  --------------  --------------  --------------  --------------  --------------  --------------  --------------
1               0:00:00.000     0:01:00.018     27 000 kbps     28 740 kbps     00:00:58.016    27 348 kbps     00:00:54.012    27 174 kbps     00:00:49.007    140 766 bytes   358 506 bytes   00:00:59.017

Скриншот с названием фильма

Скриншоты
Скачать

Скачать торрент!

Как скачивать? · Что такое торрент? · Рейтинг и ограничения

Сайт не распространяет и не хранит электронные версии произведений, а лишь предоставляет доступ к создаваемому пользователями каталогу ссылок на торрент-файлы, которые содержат только списки хеш-сумм

[Профиль] [ЛС]
Показать сообщения:    
Ответить на тему

Текущее время: Сегодня 22:32

Часовой пояс: GMT + 4



Вы не можете начинать темы
Вы не можете отвечать на сообщения
Вы не можете редактировать свои сообщения
Вы не можете удалять свои сообщения
Вы не можете голосовать в опросах
Вы не можете прикреплять файлы к сообщениям
Вы не можете скачивать файлы