Прежде чем мы расстанемся / Before We Go (Крис Эванс / Chris Evans) [2014, США, драма, мелодрама, WEB-DL 1080p] Sub Rus, Eng + Original Eng

Ответить на тему
 
Автор Сообщение

user ®

Стаж: 7 лет 7 месяцев

Сообщений: 20008

Пост Пост: #1 от 01-Окт-2015 15:42

[Цитировать]

Прежде чем мы расстанемся / Before We Go
Страна: США
Студия: G4 Productions, Nutmeg Film Productions, Wonderland Sound and Vision
Жанр: драма, мелодрама
Год выпуска: 2014
Продолжительность: 01:36:23
Перевод: Субтитры
Cубтитры: русские, английские
Оригинальная аудиодорожка: английский
Режиссер: Крис Эванс / Chris Evans
В ролях: Крис Эванс, Элис Ив, Скотт Эванс, Эмма Фитцпатрик, Мария Брэймэн, Джон Каллам, Марк Кассен, Бет Катехис, Дэниэл Спинк, Кевин Керолан, Элайджа Морлэнд и другие
Описание: Мужчина и женщина, ранее не знавшие друг друга, проводят ночь вместе. Противоречия, испытываемые героями в жизни, становятся основой для исследования друг друга и самих себя.
II Сэмпл II IMDB II
Доп. информация:
За русские субтитры спасибо Maxj
Цитата:
Перевод: Pandem
Редактура: Polmila
Синхронизация: bozxphd
Тип релиза: WEB-DL 1080p
Контейнер: MKV
Видео: AVC / 1912x1032 / 1.85:1 / 23.976fps / Bit rate 4899Kbps
Аудио: AC3 / 48.0 KHz / 6ch. / 384kbps / eng
Формат субтитров: softsub (SRT)
MediaInfo
Общее
Уникальный идентификатор : 173315555866549440778435051218432418117 (0x82635CA4A2E4DB0AA6EC1C7263ABE145)
Полное имя : G:\!!!_torrent\Before.We.Go.2014.WEB-DL.1080p_by_vedigo.mkv
Формат : Matroska
Версия формата : Version 4 / Version 2
Размер файла : 3,59 Гбайт
Продолжительность : 1 ч. 35 м.
Общий поток : 5390 Кбит/сек
Название фильма : Before.We.Go.2014.WEB-DL.1080p_by_vedigo
Дата кодирования : UTC 2015-09-30 05:17:25
Программа кодирования : mkvmerge v8.4.0 ('A better way to fly') 64bit
Библиотека кодирования : libebml v1.3.1 + libmatroska v1.4.2
DURATION : 01:28:54.700000000
NUMBER_OF_FRAMES : 1582
NUMBER_OF_BYTES : 83781
_STATISTICS_WRITING_APP : mkvmerge v8.4.0 ('A better way to fly') 64bit
_STATISTICS_WRITING_DATE_UTC : 2015-09-30 05:17:25
_STATISTICS_TAGS : BPS DURATION NUMBER_OF_FRAMES NUMBER_OF_BYTES
Видео
Идентификатор : 1
Формат : AVC
Формат/Информация : Advanced Video Codec
Профиль формата : High@L4
Параметр CABAC формата : Да
Параметр ReFrames формата : 4 кадра
Идентификатор кодека : V_MPEG4/ISO/AVC
Продолжительность : 1 ч. 35 м.
Битрейт : 4899 Кбит/сек
Ширина : 1912 пикселей
Высота : 1032 пикселя
Соотношение сторон : 1,85:1
Режим частоты кадров : Постоянный
Частота кадров : 23,976 кадра/сек
Цветовое пространство : YUV
Субдискретизация насыщенности : 4:2:0
Битовая глубина : 8 бит
Тип развёртки : Прогрессивная
Бит/(Пиксели*Кадры) : 0.104
Размер потока : 3,26 Гбайт (91%)
Заголовок : Before.We.Go.2014.WEB-DL.1080p_by_vedigo
Язык : English
Default : Да
Forced : Нет
Цветовой диапазон : Limited
Основные цвета : BT.709
Характеристики трансфера : BT.709
Коэффициенты матрицы : BT.709
Аудио
Идентификатор : 2
Формат : AC-3
Формат/Информация : Audio Coding 3
Расширение режима : CM (complete main)
Параметр Endianness формата : Big
Идентификатор кодека : A_AC3
Продолжительность : 1 ч. 35 м.
Вид битрейта : Постоянный
Битрейт : 384 Кбит/сек
Каналы : 6 каналов
Расположение каналов : Front: L C R, Side: L R, LFE
Частота : 48,0 КГц
Метод сжатия : С потерями
Размер потока : 262 Мбайт (7%)
Заголовок : original
Язык : English
Default : Да
Forced : Нет
Текст #1
Идентификатор : 3
Формат : UTF-8
Идентификатор кодека : S_TEXT/UTF8
Идентификатор кодека/Информация : UTF-8 Plain Text
Заголовок : subtitle rus
Язык : Russian
Default : Да
Forced : Нет
Текст #2
Идентификатор : 4
Формат : UTF-8
Идентификатор кодека : S_TEXT/UTF8
Идентификатор кодека/Информация : UTF-8 Plain Text
Заголовок : subtitle eng
Язык : English
Default : Нет
Forced : Нет
Скриншоты
Скачать

Скачать торрент!

Как скачивать? · Что такое торрент? · Рейтинг и ограничения

Сайт не распространяет и не хранит электронные версии произведений, а лишь предоставляет доступ к создаваемому пользователями каталогу ссылок на торрент-файлы, которые содержат только списки хеш-сумм

[Профиль] [ЛС]
Показать сообщения:    
Ответить на тему

Текущее время: Сегодня 17:46

Часовой пояс: GMT + 4



Вы не можете начинать темы
Вы не можете отвечать на сообщения
Вы не можете редактировать свои сообщения
Вы не можете удалять свои сообщения
Вы не можете голосовать в опросах
Вы не можете прикреплять файлы к сообщениям
Вы не можете скачивать файлы