Правдивая история / True Story (Руперт Гулд / Rupert Goold) [2015, Италия, Франция, Великобритания, триллер, драма, детектив, BDRip 720p] MVO (iTunes) + Sub Rus, Ukr, Eng + Original Eng

Ответить на тему
 
Автор Сообщение

user ®

Стаж: 7 лет 7 месяцев

Сообщений: 20008

Пост Пост: #1 от 01-Окт-2015 15:42

[Цитировать]

Правдивая история / True Story
Страна: Италия, Франция, Великобритания
Студия: 20th Century Fox, Regency Enterprises, New Regency Pictures, Plan B Entertainment
Жанр: триллер, драма, детектив
Год выпуска: 2015
Продолжительность: 01:39:25
Перевод: Профессиональный (многоголосый закадровый) iTunes
Cубтитры: Rus, Ukr, Eng
Оригинальная аудиодорожка: английский
Режиссер: Руперт Гулд / Rupert Goold
В ролях: Джона Хилл, Джеймс Франко, Фелисити Джонс, Мария Диззия, Итан Сапли, Конор Кикот, Шарлотта Дрисколл, Стелла Рэй Пэйн, Роберт Джон Бёрк, Байрон Дженнингс
Описание: История взаимоотношений журналиста Майкла Финкеля и убийцы, разыскиваемого ФБР, по имени Кристиан Лонго, который много лет скрывался за пределами США под именем Финкеля.

Тип релиза: BDRip 720p
Контейнер: MKV
Видео: MPEG-4 AVC, 8116 Kбит/с, 1280x690, 23,976 fps
Аудио: Rus, AC3, 384 kb/s (6 ch), 48 kHz
Аудио 2: Eng, DTS, 1510 kb/s (6 ch), 48 kHz
Формат субтитров: softsub (SRT)
MediaInfo
Format : Matroska
Format version : Version 4 / Version 2
File size : 7.09 GiB
Duration : 1h 39mn
Overall bit rate : 10.2 Mbps
Movie name : Правдивая история. (Tonik)
Encoded date : UTC 2015-09-30 07:35:39
Writing application : mkvmerge v7.1.0 ('Good Love') 64bit built on Jul 27 2014 13:06:55
Writing library : libebml v1.3.0 + libmatroska v1.4.1
_STATISTICS_WRITING_APP : mkvmerge v7.1.0 ('Good Love') 64bit built on Jul 27 2014 13:06:55
_STATISTICS_WRITING_DATE_UTC : 2015-09-30 07:35:39
_STATISTICS_TAGS : BPS DURATION NUMBER_OF_FRAMES NUMBER_OF_BYTES
DURATION : 01:31:01.831000000
NUMBER_OF_FRAMES : 1575
NUMBER_OF_BYTES : 48696
Video
ID : 1
Format : AVC
Format/Info : Advanced Video Codec
Format profile : High@L4.1
Format settings, CABAC : Yes
Format settings, ReFrames : 9 frames
Codec ID : V_MPEG4/ISO/AVC
Duration : 1h 39mn
Bit rate : 8 116 Kbps
Width : 1 280 pixels
Height : 690 pixels
Display aspect ratio : 1.85:1
Frame rate mode : Constant
Frame rate : 23.976 fps
Color space : YUV
Chroma subsampling : 4:2:0
Bit depth : 8 bits
Scan type : Progressive
Bits/(Pixel*Frame) : 0.383
Stream size : 5.64 GiB (79%)
Writing library : x264 core 146 r2538 121396c
Encoding settings : cabac=1 / ref=9 / deblock=1:-3:-3 / analyse=0x3:0x113 / me=umh / subme=10 / psy=1 / psy_rd=1.00:0.15 / mixed_ref=1 / me_range=48 / chroma_me=1 / trellis=2 / 8x8dct=1 / cqm=0 / deadzone=21,11 / fast_pskip=0 / chroma_qp_offset=-3 / threads=12 / lookahead_threads=2 / sliced_threads=0 / nr=0 / decimate=1 / interlaced=0 / bluray_compat=0 / constrained_intra=0 / bframes=9 / b_pyramid=2 / b_adapt=2 / b_bias=0 / direct=1 / weightb=1 / open_gop=0 / weightp=2 / keyint=240 / keyint_min=23 / scenecut=40 / intra_refresh=0 / rc_lookahead=40 / rc=crf / mbtree=1 / crf=18.0 / qcomp=0.60 / qpmin=0 / qpmax=69 / qpstep=4 / vbv_maxrate=40000 / vbv_bufsize=48000 / crf_max=0.0 / nal_hrd=none / filler=0 / ip_ratio=1.40 / aq=3:0.80
Language : English
Default : Yes
Forced : No
Color primaries : BT.709
Transfer characteristics : BT.709
Matrix coefficients : BT.709
DURATION : 01:39:26.002000000
NUMBER_OF_FRAMES : 143041
NUMBER_OF_BYTES : 6201674326
_STATISTICS_WRITING_APP : mkvmerge v7.1.0 ('Good Love') 64bit built on Jul 27 2014 13:06:55
_STATISTICS_WRITING_DATE_UTC : 2015-09-30 07:35:39
_STATISTICS_TAGS : BPS DURATION NUMBER_OF_FRAMES NUMBER_OF_BYTES
Audio #1
ID : 2
Format : AC-3
Format/Info : Audio Coding 3
Mode extension : CM (complete main)
Format settings, Endianness : Big
Codec ID : A_AC3
Duration : 1h 39mn
Bit rate mode : Constant
Bit rate : 384 Kbps
Channel(s) : 6 channels
Channel positions : Front: L C R, Side: L R, LFE
Sampling rate : 48.0 KHz
Bit depth : 16 bits
Compression mode : Lossy
Stream size : 273 MiB (4%)
Title : iTunes
Language : Russian
Default : Yes
Forced : No
Audio #2
ID : 3
Format : DTS
Format/Info : Digital Theater Systems
Mode : 16
Format settings, Endianness : Big
Codec ID : A_DTS
Duration : 1h 39mn
Bit rate mode : Constant
Bit rate : 1 510 Kbps
Channel(s) : 6 channels
Channel positions : Front: L C R, Side: L R, LFE
Sampling rate : 48.0 KHz
Bit depth : 24 bits
Compression mode : Lossy
Stream size : 1.05 GiB (15%)
Language : English
Default : No
Forced : No
Text #1
ID : 4
Format : UTF-8
Codec ID : S_TEXT/UTF8
Codec ID/Info : UTF-8 Plain Text
Language : Russian
Default : No
Forced : No
Text #2
ID : 5
Format : UTF-8
Codec ID : S_TEXT/UTF8
Codec ID/Info : UTF-8 Plain Text
Title : iTunes
Language : Ukrainian
Default : No
Forced : No
Text #3
ID : 6
Format : UTF-8
Codec ID : S_TEXT/UTF8
Codec ID/Info : UTF-8 Plain Text
Language : English
Default : No
Forced : No
Text #4
ID : 7
Format : UTF-8
Codec ID : S_TEXT/UTF8
Codec ID/Info : UTF-8 Plain Text
Title : SDH
Language : English
Default : No
Forced : No
Menu
00:00:00.000 : en:00:00:00.000
00:04:20.552 : en:00:04:20.552
00:06:41.192 : en:00:06:41.192
00:09:06.212 : en:00:09:06.212
00:13:15.920 : en:00:13:15.920
00:16:38.956 : en:00:16:38.956
00:17:58.911 : en:00:17:58.911
00:19:13.194 : en:00:19:13.194
00:25:32.322 : en:00:25:32.322
00:29:11.124 : en:00:29:11.124
00:32:44.129 : en:00:32:44.129
00:36:53.336 : en:00:36:53.336
00:38:08.661 : en:00:38:08.661
00:39:54.225 : en:00:39:54.225
00:44:28.791 : en:00:44:28.791
00:46:45.302 : en:00:46:45.302
00:49:24.962 : en:00:49:24.962
00:50:57.763 : en:00:50:57.763
00:53:13.982 : en:00:53:13.982
00:58:07.192 : en:00:58:07.192
01:00:57.946 : en:01:00:57.946
01:05:11.282 : en:01:05:11.282
01:07:04.979 : en:01:07:04.979
01:16:57.780 : en:01:16:57.780
01:22:06.380 : en:01:22:06.380
01:25:37.758 : en:01:25:37.758
01:30:48.401 : en:01:30:48.401
01:33:55.672 : en:01:33:55.672
Скриншоты
Скачать

Скачать торрент!

Как скачивать? · Что такое торрент? · Рейтинг и ограничения

Сайт не распространяет и не хранит электронные версии произведений, а лишь предоставляет доступ к создаваемому пользователями каталогу ссылок на торрент-файлы, которые содержат только списки хеш-сумм

[Профиль] [ЛС]
Показать сообщения:    
Ответить на тему

Текущее время: Сегодня 04:21

Часовой пояс: GMT + 4



Вы не можете начинать темы
Вы не можете отвечать на сообщения
Вы не можете редактировать свои сообщения
Вы не можете удалять свои сообщения
Вы не можете голосовать в опросах
Вы не можете прикреплять файлы к сообщениям
Вы не можете скачивать файлы