Капитан корабля / Meaghamann ( Магиж Тирумени / Magizh Thirumeni ) [2014, Индия, Боевик, WEB-DLRip] Sub Rus

Ответить на тему
 
Автор Сообщение

user ®

Стаж: 12 лет

Сообщений: 15092

Пост Пост: #1 от 01-Окт-2015 12:36

[Цитировать]

Капитан корабля / Meaghamann
Страна: Индия
Жанр: Боевик
Год выпуска: 2014
Продолжительность: 02:17:13
Перевод: Субтитры
Cубтитры: русские
Оригинальная аудиодорожка: Тамили
Режиссер: Магиж Тирумени / Magizh Thirumeni
В ролях: Арья, Хансика Мотвани, Ашутош Рана, Анупама Кумар, Хариш Утхаман, Ашиш Видъяртхи и др.
Описание: Суровые будни тайного агента полиции, внедрившегося в наркокартель.
Доп. информация:
Сэмпл / Sample
AVI-INFO
Медиа Инфо
Перевод и редакция:Марк1979
Риппер:randy23

Релиз-группа:
Качество видео: WEB-DLRip
Формат видео: AVI
Видео: XviD, 720х368, 23.81 fps, 2149 kbps
Аудио: AC3, 48 kHz, 2.0 (stereo), 128 kbps
Формат субтитров: hardsub (неотключаемые)
MediaInfo
Общее
Полное имя : J:\MOVIE\Kapitan.Korablya.2014.WEBRip.XviD.BwTorrents.avi
Формат : AVI
Формат/Информация : Audio Video Interleave
Профиль формата : OpenDML
Размер файла : 2,19 Гбайт
Продолжительность : 2 ч. 17 м.
Общий поток : 2285 Кбит/сек
Программа кодирования : VirtualDubMod 1.5.10.2 (build 2542/release)
Библиотека кодирования : VirtualDubMod build 2542/release
Видео
Идентификатор : 0
Формат : MPEG-4 Visual
Профиль формата : Advanced Simple@L5
Параметр BVOP формата : 1
Параметр QPel формата : Нет
Параметр GMC формата : Без точки перехода
Параметр матрицы формата : Default (H.263)
Режим смешивания : Сжатый битовый поток
Идентификатор кодека : XVID
Идентификатор кодека/Подсказка : XviD
Продолжительность : 2 ч. 17 м.
Битрейт : 2145 Кбит/сек
Ширина : 720 пикселей
Высота : 368 пикселей
Соотношение сторон : 1,957
Частота кадров : 23,810 кадра/сек
Цветовое пространство : YUV
Субдискретизация насыщенности : 4:2:0
Битовая глубина : 8 бит
Тип развёртки : Прогрессивная
Метод сжатия : С потерями
Бит/(Пиксели*Кадры) : 0.340
Размер потока : 2,06 Гбайт (94%)
Библиотека кодирования : XviD 1.2.1 (UTC 2008-12-04)
Аудио
Идентификатор : 1
Формат : AC-3
Формат/Информация : Audio Coding 3
Расширение режима : CM (complete main)
Параметр Endianness формата : Big
Идентификатор кодека : 2000
Продолжительность : 2 ч. 17 м.
Вид битрейта : Постоянный
Битрейт : 128 Кбит/сек
Каналы : 2 канала
Расположение каналов : Front: L R
Частота : 44,1 КГц
Битовая глубина : 16 бит
Метод сжатия : С потерями
Размер потока : 126 Мбайт (6%)
Выравнивание : Разделение по промежуткам
Продолжительность промежутка : 42 мс. (1,00 видеокадр)
Время предзагрузки промежутка : 500 мс.
Скриншот c названием фильма Скриншоты
Скачать

Скачать торрент! Капитан корабля / Meaghamann ( Магиж Тирумени / Magizh Thirumeni ) [2014, Индия, Боевик, WEB-DLRip] Sub Rus

Как скачивать? · Что такое торрент? · Рейтинг и ограничения

Сайт не распространяет и не хранит электронные версии произведений, а лишь предоставляет доступ к создаваемому пользователями каталогу ссылок на торрент-файлы, которые содержат только списки хеш-сумм

[Профиль] [ЛС]
Показать сообщения:    
Ответить на тему

Текущее время: Сегодня 02:43

Часовой пояс: GMT + 4



Вы не можете начинать темы
Вы не можете отвечать на сообщения
Вы не можете редактировать свои сообщения
Вы не можете удалять свои сообщения
Вы не можете голосовать в опросах
Вы не можете прикреплять файлы к сообщениям
Вы не можете скачивать файлы