Эшби / Ashby (Тони МакНамара / Tony McNamara) [2015, США, драма, мелодрама, комедия, WEB-DL 720p] Dub + Sub Eng + Original Eng

Ответить на тему
 
Автор Сообщение

user ®

Стаж: 7 лет 7 месяцев

Сообщений: 20008

Пост Пост: #1 от 30-Сен-2015 18:03

[Цитировать]

Эшби / Ashby
Страна: США
Жанр: драма, мелодрама, комедия
Год выпуска: 2015
Продолжительность: 01:42:56
Перевод: Профессиональный (дублированный)
Cубтитры: английские
Оригинальная аудиодорожка: английский
Режиссер: Тони МакНамара / Tony McNamara
В ролях: Микки Рурк, Нат Вулф, Эмма Робертс, Сара Силверман, Кевин Данн, Захари Найтон, Майкл Лернер, Джон Инос III, Стив Култер, Том Ноуики
Описание: Поступив в университет, Эд начинает дружить со своим соседом Эшби — бывшим киллером ЦРУ, которому осталось жить всего несколько месяцев…
Сэмпл: http://sendfile.su/1159125
Качество видео: WEB-DL 720p
Формат видео: MKV
Видео: MPEG4 Video (H264) 1280x530 23.976fps, 3 861 Kbps
Аудио: AC-3, 48.0 KHz, 192 Kbps, 2 channels
Аудио 2: AC-3, 48.0 KHz, 384 Kbps, 6 channels
Формат субтитров: softsub (SSA/ASS)
MediaInfo
General
Unique ID : 229666554637055620907446983746212528735 (0xACC82B630A27112C9BC047EFEF2B025F)
Complete name : F:\Zona Downloads\EWby.2015.D.WEB-DL.720p.mkv
Format : Matroska
Format version : Version 4 / Version 2
File size : 3.26 GiB
Duration : 1h 42mn
Overall bit rate : 4 529 Kbps
Movie name : Ashby.2015.720p.WEB-DL.DD5.1.H264
Encoded date : UTC 2015-09-28 20:05:52
Writing application : mkvmerge v8.4.0 ('A better way to fly') 32bit
Writing library : libebml v1.3.1 + libmatroska v1.4.2
DURATION : 01:35:44.142000000
NUMBER_OF_FRAMES : 1481
NUMBER_OF_BYTES : 60550
_STATISTICS_WRITING_APP : mkvmerge v8.4.0 ('A better way to fly') 32bit
_STATISTICS_WRITING_DATE_UT : 2015-09-28 20:05:52
_STATISTICS_TAGS : BPS DURATION NUMBER_OF_FRAMES NUMBER_OF_BYTES
Video
ID : 1
Format : AVC
Format/Info : Advanced Video Codec
Format profile : Main@L3.1
Format settings, CABAC : No
Format settings, ReFrames : 2 frames
Codec ID : V_MPEG4/ISO/AVC
Duration : 1h 42mn
Bit rate : 3 863 Kbps
Width : 1 280 pixels
Height : 530 pixels
Display aspect ratio : 2.40:1
Frame rate mode : Constant
Frame rate : 23.976 fps
Color space : YUV
Chroma subsampling : 4:2:0
Bit depth : 8 bits
Scan type : Progressive
Bits/(Pixel*Frame) : 0.237
Stream size : 2.78 GiB (85%)
Title : Ashby.2015.720p.WEB-DL.DD5.1.H264
Language : English
Default : Yes
Forced : No
Color primaries : BT.709
Transfer characteristics : BT.709
Matrix coefficients : BT.709
Color range : Limited
Audio #1
ID : 2
Format : AC-3
Format/Info : Audio Coding 3
Mode extension : CM (complete main)
Format settings, Endianness : Big
Codec ID : A_AC3
Duration : 1h 42mn
Bit rate mode : Constant
Bit rate : 192 Kbps
Channel(s) : 2 channels
Channel positions : Front: L R
Sampling rate : 48.0 KHz
Bit depth : 16 bits
Compression mode : Lossy
Delay relative to video : 22ms
Stream size : 141 MiB (4%)
Language : Russian
Default : Yes
Forced : No
Audio #2
ID : 3
Format : AC-3
Format/Info : Audio Coding 3
Mode extension : CM (complete main)
Format settings, Endianness : Big
Codec ID : A_AC3
Duration : 1h 42mn
Bit rate mode : Constant
Bit rate : 384 Kbps
Channel(s) : 6 channels
Channel positions : Front: L C R, Side: L R, LFE
Sampling rate : 48.0 KHz
Bit depth : 16 bits
Compression mode : Lossy
Delay relative to video : 22ms
Stream size : 283 MiB (8%)
Title : Ashby.2015.720p.WEB-DL.DD5.1.H264-RARBG
Language : English
Default : No
Forced : No
Text
ID : 4
Format : UTF-8
Codec ID : S_TEXT/UTF8
Codec ID/Info : UTF-8 Plain Text
Language : English
Default : No
Forced : No
Скриншоты
Скачать

Скачать торрент!

Как скачивать? · Что такое торрент? · Рейтинг и ограничения

Сайт не распространяет и не хранит электронные версии произведений, а лишь предоставляет доступ к создаваемому пользователями каталогу ссылок на торрент-файлы, которые содержат только списки хеш-сумм

[Профиль] [ЛС]
Показать сообщения:    
Ответить на тему

Текущее время: Сегодня 16:04

Часовой пояс: GMT + 4



Вы не можете начинать темы
Вы не можете отвечать на сообщения
Вы не можете редактировать свои сообщения
Вы не можете удалять свои сообщения
Вы не можете голосовать в опросах
Вы не можете прикреплять файлы к сообщениям
Вы не можете скачивать файлы