Шпион / Spy (Пол Фиг / Paul Feig) [2015, США, боевик, комедия, криминал, Blu-ray disc 1080p] [2-in-1: Theatrical & Unrated Cut] [EUR] Dub + Sub Rus, Eng + Original Eng

Ответить на тему
 
Автор Сообщение

user ®

Стаж: 7 лет 7 месяцев

Сообщений: 20008

Пост Пост: #1 от 30-Сен-2015 14:57

[Цитировать]

Шпион / Spy
Страна: США
Жанр: боевик, комедия, криминал
Год выпуска: 2015
Продолжительность: 02:00:05 | 02:10:22
Перевод: Профессиональный (дублированный)
Cубтитры: Английский, Эстонский, Латышский, Литовский, Русский, Испанский, Украинский
Оригинальная аудиодорожка: английский
Режиссер: Пол Фиг / Paul Feig
В ролях: Мелисса МакКарти, Джейсон Стэйтем, Джуд Лоу, Роуз Бирн, Миранда Харт, Бобби Каннавале, Морена Баккарин, Питер Серафинович, Эллисон Дженни, Ричард Брэйк
Описание: Cьюзан Купер всю свою жизнь мечтала стать секретным агентом и даже устроилась работать в ЦРУ. Однако, дальше сотрудника самой низкой ступени ей так и не удалось продвинуться. Понимая, что осуществить свою мечту практически невозможно, она все-таки продолжает надеяться на лучшее и с нетерпением ожидает своего шанса. И вскоре судьба дарит ей такую возможность. Лучший агент проваливает секретное задание, в ходе которого он должен был выяснить местонахождение ядерной бомбы, но, совершенно случайно, застрелил единственного человека, владеющего этой информацией.
Через некоторое время службе разведки становится известно, что Рейна Боянова знает, где находится бомба, но она также знает в лицо всех секретных агентов ЦРУ. Теперь у руководства не остается другого выбора, как воспользоваться услугами Сьюзан Купер, но сможет ли она справиться со столь сложной миссией?

Меню: анимированное / озвученное.
Сэмпл: http://sendfile.su/1159224
Тип релиза: Blu-ray disc
Контейнер: BDMV
Видео: MPEG-4 AVC Video 19392 kbps 1080p / 23,976 fps / 16:9 / High Profile 4.1
Аудио 1: DTS-HD Master Audio English 4760 kbps 7.1 / 48 kHz / 4760 kbps / 24-bit (DTS Core: 5.1-ES / 48 kHz / 1509 kbps / 24-bit)
Аудио 2: Dolby Digital Audio Russian 448 kbps 5.1 / 48 kHz / 448 kbps
Аудио 3: Dolby Digital Audio Spanish 448 kbps 5.1 / 48 kHz / 448 kbps
Аудио 4: Dolby Digital Audio Ukrainian 448 kbps 5.1 / 48 kHz / 448 kbps
Аудио 5: Dolby Digital Audio English 224 kbps 2.0 / 48 kHz / 224 kbps
На диске
• Includes Both the Theatrical Version and the Extended Version of the Film
• 3 Redacted Scenes
• 15 Classified Alternate Scenes
• 2 Top Secret Gag Reels
• Cutting Room Floor Outtakes including Susan and Her Men, The Great Rick Ford, For Your Eyes Only: Jokes-A-Plenty
• How SPY Was Made: 8 Behind-the-Scenes Featurettes
• Commentary
• And Much More!
BDInfo
DISC INFO:
Disc Title: Spy
Disc Size: 47 376 617 074 bytes
Protection: AACS
BD-Java: Yes
BDInfo: 0.5.8
PLAYLIST REPORT:
Name: 00801.MPLS
Length: 2:10:22.939 (h:m:s.ms)
Size: 27 589 226 496 bytes
Total Bitrate: 28,21 Mbps
(*) Indicates included stream hidden by this playlist.
VIDEO:
Codec Bitrate Description
----- ------- -----------
MPEG-4 AVC Video 19392 kbps 1080p / 23,976 fps / 16:9 / High Profile 4.1
AUDIO:
Codec Language Bitrate Description
----- -------- ------- -----------
DTS-HD Master Audio English 4760 kbps 7.1 / 48 kHz / 4760 kbps / 24-bit (DTS Core: 5.1-ES / 48 kHz / 1509 kbps / 24-bit)
Dolby Digital Audio Russian 448 kbps 5.1 / 48 kHz / 448 kbps
Dolby Digital Audio Spanish 448 kbps 5.1 / 48 kHz / 448 kbps
Dolby Digital Audio Ukrainian 448 kbps 5.1 / 48 kHz / 448 kbps
* Dolby Digital Audio English 224 kbps 2.0 / 48 kHz / 224 kbps
Dolby Digital Audio English 224 kbps 2.0 / 48 kHz / 224 kbps
SUBTITLES:
Codec Language Bitrate Description
----- -------- ------- -----------
Presentation Graphics English 51,262 kbps
Presentation Graphics English 0,105 kbps
Presentation Graphics Estonian 51,313 kbps
Presentation Graphics Latvian 44,998 kbps
Presentation Graphics Lithuanian 45,901 kbps
Presentation Graphics Russian 46,663 kbps
* Presentation Graphics Russian 83,554 kbps
Presentation Graphics Russian 83,756 kbps
Presentation Graphics Spanish 46,643 kbps
* Presentation Graphics Spanish 73,560 kbps
Presentation Graphics Spanish 73,537 kbps
Presentation Graphics Ukrainian 49,470 kbps
FILES:
Name Time In Length Size Total Bitrate
---- ------- ------ ---- -------------
02449.M2TS 0:00:00.000 0:10:58.699 2 345 705 472 28 489
02493.M2TS 0:10:58.699 0:03:12.442 663 496 704 27 582
02451.M2TS 0:14:11.141 0:01:25.335 296 183 808 27 767
02494.M2TS 0:15:36.477 0:05:17.900 1 108 414 464 27 893
02453.M2TS 0:20:54.378 0:05:18.026 1 114 122 240 28 026
02495.M2TS 0:26:12.404 0:01:27.420 303 611 904 27 784
02455.M2TS 0:27:39.824 0:06:18.211 1 317 789 696 27 874
02496.M2TS 0:33:58.035 0:00:28.903 102 248 448 28 300
02457.M2TS 0:34:26.939 0:02:11.131 460 597 248 28 100
02497.M2TS 0:36:38.070 0:00:23.690 81 702 912 27 590
02459.M2TS 0:37:01.761 0:00:23.815 82 937 856 27 860
02498.M2TS 0:37:25.576 0:01:36.679 338 823 168 28 037
02461.M2TS 0:39:02.256 0:01:21.539 287 238 144 28 181
02499.M2TS 0:40:23.796 0:00:21.312 73 893 888 27 737
02463.M2TS 0:40:45.109 0:06:50.993 1 460 183 040 28 422
02500.M2TS 0:47:36.103 0:01:34.511 325 834 752 27 581
02465.M2TS 0:49:10.614 0:03:36.925 760 080 384 28 031
02501.M2TS 0:52:47.539 0:00:22.272 78 950 400 28 358
02467.M2TS 0:53:09.811 0:00:33.074 115 347 456 27 900
02502.M2TS 0:53:42.886 0:00:22.439 78 802 944 28 095
02469.M2TS 0:54:05.325 0:10:40.765 2 246 830 080 28 052
02503.M2TS 1:04:46.090 0:02:34.696 534 392 832 27 636
02471.M2TS 1:07:20.786 0:01:00.268 218 830 848 29 047
02504.M2TS 1:08:21.055 0:00:37.454 132 900 864 28 387
02473.M2TS 1:08:58.509 0:09:35.741 2 042 664 960 28 383
02505.M2TS 1:18:34.250 0:00:49.841 170 741 760 27 406
02475.M2TS 1:19:24.092 0:04:17.298 921 735 168 28 659
02506.M2TS 1:23:41.391 0:00:21.730 78 661 632 28 960
02477.M2TS 1:24:03.121 0:01:33.468 338 718 720 28 991
02507.M2TS 1:25:36.589 0:01:59.452 417 687 552 27 973
02479.M2TS 1:27:36.042 0:01:36.971 344 020 992 28 381
02508.M2TS 1:29:13.013 0:02:09.671 461 254 656 28 457
02481.M2TS 1:31:22.685 0:03:40.261 799 629 312 29 043
02509.M2TS 1:35:02.946 0:00:46.171 163 614 720 28 349
02483.M2TS 1:35:49.117 0:06:38.815 1 393 348 608 27 950
02510.M2TS 1:42:27.933 0:01:43.645 357 771 264 27 615
02485.M2TS 1:44:11.578 0:02:59.345 628 549 632 28 037
02511.M2TS 1:47:10.924 0:02:23.935 503 930 880 28 009
02487.M2TS 1:49:34.859 0:06:19.087 1 342 537 728 28 332
02512.M2TS 1:55:53.946 0:01:21.289 300 472 320 29 571
02489.M2TS 1:57:15.236 0:05:00.800 1 077 055 488 28 645
02513.M2TS 2:02:16.036 0:01:27.170 303 587 328 27 862
02491.M2TS 2:03:43.206 0:06:09.911 1 318 735 872 28 520
02514.M2TS 2:09:53.118 0:00:29.821 95 588 352 25 643
PLAYLIST REPORT:
Name: 00800.MPLS
Length: 2:00:05.948 (h:m:s.ms)
Size: 25 491 542 016 bytes
Total Bitrate: 28,30 Mbps
(*) Indicates included stream hidden by this playlist.
VIDEO:
Codec Bitrate Description
----- ------- -----------
MPEG-4 AVC Video 19433 kbps 1080p / 23,976 fps / 16:9 / High Profile 4.1
AUDIO:
Codec Language Bitrate Description
----- -------- ------- -----------
DTS-HD Master Audio English 4805 kbps 7.1 / 48 kHz / 4805 kbps / 24-bit (DTS Core: 5.1-ES / 48 kHz / 1509 kbps / 24-bit)
Dolby Digital Audio Russian 448 kbps 5.1 / 48 kHz / 448 kbps
Dolby Digital Audio Spanish 448 kbps 5.1 / 48 kHz / 448 kbps
Dolby Digital Audio Ukrainian 448 kbps 5.1 / 48 kHz / 448 kbps
Dolby Digital Audio English 224 kbps 2.0 / 48 kHz / 224 kbps
* Dolby Digital Audio English 224 kbps 2.0 / 48 kHz / 224 kbps
SUBTITLES:
Codec Language Bitrate Description
----- -------- ------- -----------
Presentation Graphics English 50,168 kbps
Presentation Graphics English 0,114 kbps
Presentation Graphics Estonian 50,501 kbps
Presentation Graphics Latvian 43,747 kbps
Presentation Graphics Lithuanian 44,488 kbps
Presentation Graphics Russian 45,679 kbps
Presentation Graphics Russian 85,447 kbps
* Presentation Graphics Russian 84,348 kbps
Presentation Graphics Spanish 45,662 kbps
Presentation Graphics Spanish 75,013 kbps
* Presentation Graphics Spanish 74,271 kbps
Presentation Graphics Ukrainian 48,583 kbps
FILES:
Name Time In Length Size Total Bitrate
---- ------- ------ ---- -------------
02449.M2TS 0:00:00.000 0:10:58.699 2 345 705 472 28 489
02450.M2TS 0:10:58.699 0:02:17.762 474 710 016 27 567
02451.M2TS 0:13:16.462 0:01:25.335 296 183 808 27 767
02452.M2TS 0:14:41.797 0:03:15.612 682 795 008 27 924
02453.M2TS 0:17:57.409 0:05:18.026 1 114 122 240 28 026
02454.M2TS 0:23:15.435 0:00:59.184 207 716 352 28 077
02455.M2TS 0:24:14.619 0:06:18.211 1 317 789 696 27 874
02456.M2TS 0:30:32.830 0:00:20.645 73 340 928 28 419
02457.M2TS 0:30:53.476 0:02:11.131 460 597 248 28 100
02458.M2TS 0:33:04.607 0:00:18.601 72 751 104 31 288
02459.M2TS 0:33:23.209 0:00:23.815 82 937 856 27 860
02460.M2TS 0:33:47.024 0:01:32.675 325 208 064 28 073
02461.M2TS 0:35:19.700 0:01:21.539 287 238 144 28 181
02462.M2TS 0:36:41.240 0:00:21.438 74 115 072 27 657
02463.M2TS 0:37:02.678 0:06:50.993 1 460 183 040 28 422
02464.M2TS 0:43:53.672 0:01:09.527 240 445 440 27 666
02465.M2TS 0:45:03.200 0:03:36.925 760 080 384 28 031
02466.M2TS 0:48:40.125 0:00:22.272 78 895 104 28 338
02467.M2TS 0:49:02.397 0:00:33.074 115 347 456 27 900
02468.M2TS 0:49:35.472 0:00:14.639 66 103 296 36 123
02469.M2TS 0:49:50.111 0:10:40.765 2 246 830 080 28 052
02470.M2TS 1:00:30.877 0:01:13.948 256 616 448 27 761
02471.M2TS 1:01:44.825 0:01:00.268 218 830 848 29 047
02472.M2TS 1:02:45.094 0:00:34.743 123 580 416 28 456
02473.M2TS 1:03:19.837 0:09:35.741 2 042 664 960 28 383
02474.M2TS 1:12:55.579 0:00:14.347 63 928 320 35 645
02475.M2TS 1:13:09.926 0:04:17.298 921 735 168 28 659
02476.M2TS 1:17:27.225 0:00:21.354 77 549 568 29 052
02477.M2TS 1:17:48.580 0:01:33.468 338 718 720 28 991
02478.M2TS 1:19:22.048 0:00:27.736 98 015 232 28 271
02479.M2TS 1:19:49.784 0:01:36.971 344 020 992 28 381
02480.M2TS 1:21:26.756 0:01:33.301 332 875 776 28 542
02481.M2TS 1:23:00.058 0:03:40.261 799 629 312 29 043
02482.M2TS 1:26:40.319 0:00:16.224 70 496 256 34 760
02483.M2TS 1:26:56.544 0:06:38.815 1 393 348 608 27 950
02484.M2TS 1:33:35.359 0:01:05.523 227 758 080 27 808
02485.M2TS 1:34:40.883 0:02:59.345 628 549 632 28 037
02486.M2TS 1:37:40.228 0:01:55.990 406 714 368 28 051
02487.M2TS 1:39:36.219 0:06:19.087 1 342 537 728 28 332
02488.M2TS 1:45:55.306 0:01:07.484 249 839 616 29 618
02489.M2TS 1:47:02.790 0:05:00.800 1 077 055 488 28 645
02490.M2TS 1:52:03.591 0:01:22.332 288 731 136 28 055
02491.M2TS 1:53:25.923 0:06:09.911 1 318 735 872 28 520
02492.M2TS 1:59:35.834 0:00:30.113 86 513 664 22 983
Скриншоты
Скачать

Скачать торрент!

Как скачивать? · Что такое торрент? · Рейтинг и ограничения

Сайт не распространяет и не хранит электронные версии произведений, а лишь предоставляет доступ к создаваемому пользователями каталогу ссылок на торрент-файлы, которые содержат только списки хеш-сумм

[Профиль] [ЛС]
Показать сообщения:    
Ответить на тему

Текущее время: Сегодня 06:56

Часовой пояс: GMT + 4



Вы не можете начинать темы
Вы не можете отвечать на сообщения
Вы не можете редактировать свои сообщения
Вы не можете удалять свои сообщения
Вы не можете голосовать в опросах
Вы не можете прикреплять файлы к сообщениям
Вы не можете скачивать файлы