Потерпевшие кораблекрушение / Битва за остров сокровищ / Хокон Хоконсен / Shipwrecked / Haakon Haakonsen (Нильс Гауп / Nils Gaup) [1990, Норвегия, Швеция, США, приключения, WEB-DL 720p] [американская версия] MVO + AVO + Sub Eng + Original Eng

Ответить на тему
 
Автор Сообщение

user ®

Стаж: 7 лет 7 месяцев

Сообщений: 20008

Пост Пост: #1 от 30-Сен-2015 14:57

[Цитировать]

Потерпевшие кораблекрушение / Битва за остров сокровищ / Хокон Хоконсен / Shipwrecked / Haakon Haakonsen / американская версия
Страна: Норвегия, Швеция, США
Студия: Filmkameratene A/S, Svensk Filmindustri (SF), Walt Disney Pictures
Жанр: приключения, семейный
Год выпуска: 1990
Продолжительность: 01:33:08
Перевод 1: Профессиональный (многоголосый закадровый) Селена интернэшнл
Перевод 2: Авторский (одноголосый закадровый) Василий Горчаков
Cубтитры: английские
Оригинальная аудиодорожка: английский
Режиссер: Нильс Гауп / Nils Gaup
В ролях: Стиан Сместад, Гэбриел Бирн, Луиза Милвуд-Хэйг, Тронд Петер Штамсе Мюнх, Бьорн Сундквист, Ева фон Ханно, Кьелль Стормоен, Карл Сундбю, Кнут Валле, Харольд Бренна и др.
Описание: 1850 год. Мог ли подумать юнга Хаакон Хааконсен, что это рутинное плавание обернется для него великим приключением и настоящим испытанием на мужество, выносливость и смекалку? Еще в начале похода юноша начал догадываться, что на борту корабля затевается что-то недоброе.
Опасения подтвердились, когда лейтенант Меррик, оказавшийся самым настоящим пиратом, поднял мятеж и захватил судно. Морская стихия — налетевший шторм — уносит Хаакона от банды корсаров и выбрасывает его на уединенный остров. Но именно на этом клочке суши негодяи прячут награбленное. А значит, героя ждет новая встреча с пиратами, которые не раз пожалеют, что связались со смелым и хитроумным юнгой!
II Сэмпл II IMDB II
Доп. информация:
За русскме дороги спасибо xfiles
Цитата:
Звуковая дорожка с переводом Василия Горчакова сделана с чистого голоса. Спасибо multmir.
Тип релиза: WEB-DL 720p
Контейнер: MKV
Видео: AVC / 1280x546 / 2.35:1 / 23.976fps / Bit rate 3984Kbps
Аудио 1: AC3 / 48.0 KHz / 2ch. / 192kbps / rus / MVO / Селена интернэшнл
Аудио 2: AC3 / 48.0 KHz / 2ch. / 192kbps / rus / AVO / Василий Горчаков
Аудио 3: AAC-LC / 48.0 KHz / 2ch. / 127kbps / eng
Формат субтитров: softsub (SRT)
MediaInfo
Общее
Уникальный идентификатор : 203879109653351164815867396178484474224 (0x9961B02FF2E0EA1183ACAFDDD6F53170)
Полное имя : G:\!!!_torrent\Shipwrecked.1990.WEB-DL.720p_by_vedigo.mkv
Формат : Matroska
Версия формата : Version 4 / Version 2
Размер файла : 2,98 Гбайт
Продолжительность : 1 ч. 33 м.
Общий поток : 4576 Кбит/сек
Название фильма : Shipwrecked.1990.WEB-DL.720p_by_vedigo
Дата кодирования : UTC 2015-09-29 06:12:54
Программа кодирования : mkvmerge v8.4.0 ('A better way to fly') 64bit
Библиотека кодирования : libebml v1.3.1 + libmatroska v1.4.2
DURATION : 01:27:43.632000000
NUMBER_OF_FRAMES : 717
NUMBER_OF_BYTES : 21869
_STATISTICS_WRITING_APP : mkvmerge v8.4.0 ('A better way to fly') 64bit
_STATISTICS_WRITING_DATE_UTC : 2015-09-29 06:12:54
_STATISTICS_TAGS : BPS DURATION NUMBER_OF_FRAMES NUMBER_OF_BYTES
Видео
Идентификатор : 1
Формат : AVC
Формат/Информация : Advanced Video Codec
Профиль формата : High@L3.1
Параметр CABAC формата : Нет
Параметр ReFrames формата : 2 кадра
Идентификатор кодека : V_MPEG4/ISO/AVC
Продолжительность : 1 ч. 33 м.
Ширина : 1280 пикселей
Высота : 546 пикселей
Соотношение сторон : 2,35:1
Режим частоты кадров : Постоянный
Частота кадров : 23,976 кадра/сек
Цветовое пространство : YUV
Субдискретизация насыщенности : 4:2:0
Битовая глубина : 8 бит
Тип развёртки : Прогрессивная
Заголовок : Shipwrecked.1990.WEB-DL.720p_by_vedigo
Default : Да
Forced : Нет
Цветовой диапазон : Limited
Основные цвета : BT.709
Характеристики трансфера : BT.709
Коэффициенты матрицы : BT.709
Аудио #1
Идентификатор : 2
Формат : AC-3
Формат/Информация : Audio Coding 3
Расширение режима : CM (complete main)
Параметр Endianness формата : Big
Идентификатор кодека : A_AC3
Продолжительность : 1 ч. 33 м.
Вид битрейта : Постоянный
Битрейт : 192 Кбит/сек
Каналы : 2 канала
Расположение каналов : Front: L R
Частота : 48,0 КГц
Метод сжатия : С потерями
Размер потока : 128 Мбайт (4%)
Заголовок : MVO @ Селена интернэшнл
Язык : Russian
Default : Да
Forced : Нет
Аудио #2
Идентификатор : 3
Формат : AC-3
Формат/Информация : Audio Coding 3
Расширение режима : CM (complete main)
Параметр Endianness формата : Big
Идентификатор кодека : A_AC3
Продолжительность : 1 ч. 33 м.
Вид битрейта : Постоянный
Битрейт : 192 Кбит/сек
Каналы : 2 канала
Расположение каналов : Front: L R
Частота : 48,0 КГц
Метод сжатия : С потерями
Размер потока : 128 Мбайт (4%)
Заголовок : AVO @ Василий Горчаков
Язык : Russian
Default : Нет
Forced : Нет
Аудио #3
Идентификатор : 4
Формат : AAC
Формат/Информация : Advanced Audio Codec
Профиль формата : LC
Идентификатор кодека : A_AAC
Продолжительность : 1 ч. 33 м.
Каналы : 2 канала
Расположение каналов : Front: L R
Частота : 48,0 КГц
Метод сжатия : С потерями
Заголовок : original
Язык : English
Default : Нет
Forced : Нет
Текст
Идентификатор : 5
Формат : UTF-8
Идентификатор кодека : S_TEXT/UTF8
Идентификатор кодека/Информация : UTF-8 Plain Text
Заголовок : subtitle eng
Язык : English
Default : Нет
Forced : Нет
Меню
00:00:00.000 : en:глава 1
00:03:36.000 : en:глава 2
00:10:05.000 : en:глава 3
00:17:23.000 : en:глава 4
00:22:11.000 : en:глава 5
00:31:00.000 : en:глава 6
00:38:23.000 : en:глава 7
00:46:38.000 : en:глава 8
00:54:11.000 : en:глава 9
01:03:13.000 : en:глава 10
01:11:25.000 : en:глава 11
01:19:59.000 : en:глава 12
01:27:41.000 : en:глава 13
01:29:38.000 : en:глава 14
Скриншоты
Скачать

Скачать торрент!

Как скачивать? · Что такое торрент? · Рейтинг и ограничения

Сайт не распространяет и не хранит электронные версии произведений, а лишь предоставляет доступ к создаваемому пользователями каталогу ссылок на торрент-файлы, которые содержат только списки хеш-сумм

[Профиль] [ЛС]
Показать сообщения:    
Ответить на тему

Текущее время: Сегодня 11:43

Часовой пояс: GMT + 4



Вы не можете начинать темы
Вы не можете отвечать на сообщения
Вы не можете редактировать свои сообщения
Вы не можете удалять свои сообщения
Вы не можете голосовать в опросах
Вы не можете прикреплять файлы к сообщениям
Вы не можете скачивать файлы