Обкуренные / Обкуренная молодежь / The Stoned Age (Джеймс Мелконян / James Melkonian) [1994, США, комедия, WEB-DL 720p] DVO + 3x AVO + Sub Rus, Eng + Original Eng

Ответить на тему
 
Автор Сообщение

user ®

Стаж: 7 лет 7 месяцев

Сообщений: 20008

Пост Пост: #1 от 30-Сен-2015 14:57

[Цитировать]

Обкуренные / Обкуренная молодежь / The Stoned Age
-Страна: США
Жанр: Комедия
Год выпуска: 1994
Продолжительность: 01:39:20-Перевод 1: Профессиональный (двухголосый закадровый)
Перевод 2: Авторский (одноголосый, закадровый) Cанаев
Перевод 3: Авторский (одноголосый, закадровый) Володарский
Перевод 4: Авторский (одноголосый, закадровый) Дохалов
Cубтитры: русские, английские
Оригинальная аудиодорожка: английский-Режиссер: Джеймс Мелконян / James Melkonian-В ролях: Майкл Копелов, Брэдфорд Тэйтум, Чайна Кантнер, Рене Амман, Клифтон Гонсалес-Гонсалес, Дэвид Гро
Описание:
Сегодня вечером приятели Джо и Хаббс хотят потратить время с пользой и найти себе клевых девчонок. Проблема была в том, что этим же была занята вся половозрелая молодежь в их городке.
Но парням, кажется, повезло: по дороге они встречают Тека, который сообщает, что у него есть пара «телок» из Северной Каролины, готовых на все. Как бы там ни было, но желающих повеселиться с девчонками оказалось слишком много. И хватило не всем.-Сэмпл: Скачать-Тип релиза: WEB-DL 720p
Контейнер: MKV-Видео: 1280x718 (16:9); 3 699 Kbps; 23.976 fps; 0.168 bpp
Аудио 1: Russian; AC3; 48.0 KHz; 6ch; 384 Kbps DVO
Аудио 2: Russian; AC3; 48.0 KHz; 2ch; 192 Kbps AVO Cанаев
Аудио 3: Russian; AC3; 48.0 KHz; 2ch; 192 Kbps AVO Володарский
Аудио 4: Russian; AC3; 48.0 KHz; 2ch; 192 Kbps AVO Дохалов
Аудио 5: English; AC3; 48.0 KHz; 6ch; 384 Kbps
MediaInfo
Format : Matroska
Format version : Version 4 / Version 2
File size : 3.57 GiB
Duration : 1h 39mn
Overall bit rate : 5 145 Kbps
Encoded date : UTC 2015-08-07 08:38:24
Writing application : mkvmerge v8.1.0 ('Psychedelic Postcard') 64bit
Writing library : libebml v1.3.1 + libmatroska v1.4.2
Attachements : poster.jpg
DURATION : 01:29:40.980000000
NUMBER_OF_FRAMES : 890
NUMBER_OF_BYTES : 63117
_STATISTICS_WRITING_APP : mkvmerge v8.1.0 ('Psychedelic Postcard') 64bit
_STATISTICS_WRITING_DATE_UTC : 2015-08-07 08:38:24
_STATISTICS_TAGS : BPS DURATION NUMBER_OF_FRAMES NUMBER_OF_BYTES
Video
ID : 1
Format : AVC
Format/Info : Advanced Video Codec
Format profile : High@L3.1
Format settings, CABAC : No
Format settings, ReFrames : 2 frames
Codec ID : V_MPEG4/ISO/AVC
Duration : 1h 39mn
Bit rate : 3 699 Kbps
Width : 1 280 pixels
Height : 718 pixels
Display aspect ratio : 16:9
Frame rate mode : Constant
Frame rate : 23.976 fps
Color space : YUV
Chroma subsampling : 4:2:0
Bit depth : 8 bits
Scan type : Progressive
Bits/(Pixel*Frame) : 0.168
Stream size : 2.57 GiB (72%)
Language : English
Default : Yes
Forced : No
Color primaries : BT.709
Transfer characteristics : BT.709
Matrix coefficients : BT.709
Audio #1
ID : 2
Format : AC-3
Format/Info : Audio Coding 3
Mode extension : CM (complete main)
Format settings, Endianness : Big
Codec ID : A_AC3
Duration : 1h 39mn
Bit rate mode : Constant
Bit rate : 384 Kbps
Channel(s) : 6 channels
Channel positions : Front: L C R, Side: L R, LFE
Sampling rate : 48.0 KHz
Bit depth : 16 bits
Compression mode : Lossy
Stream size : 273 MiB (7%)
Title : MVO
Language : Russian
Default : Yes
Forced : No
Audio #2
ID : 3
Format : AC-3
Format/Info : Audio Coding 3
Mode extension : CM (complete main)
Format settings, Endianness : Big
Codec ID : A_AC3
Duration : 1h 39mn
Bit rate mode : Constant
Bit rate : 192 Kbps
Channel(s) : 2 channels
Channel positions : Front: L R
Sampling rate : 48.0 KHz
Bit depth : 16 bits
Compression mode : Lossy
Stream size : 136 MiB (4%)
Title : AVO Cанаев
Language : Russian
Default : No
Forced : No
Audio #3
ID : 4
Format : AC-3
Format/Info : Audio Coding 3
Mode extension : CM (complete main)
Format settings, Endianness : Big
Codec ID : A_AC3
Duration : 1h 39mn
Bit rate mode : Constant
Bit rate : 192 Kbps
Channel(s) : 2 channels
Channel positions : Front: L R
Sampling rate : 48.0 KHz
Bit depth : 16 bits
Compression mode : Lossy
Stream size : 136 MiB (4%)
Title : AVO Володарский
Language : Russian
Default : No
Forced : No
Audio #4
ID : 5
Format : AC-3
Format/Info : Audio Coding 3
Mode extension : CM (complete main)
Format settings, Endianness : Big
Codec ID : A_AC3
Duration : 1h 39mn
Bit rate mode : Constant
Bit rate : 192 Kbps
Channel(s) : 2 channels
Channel positions : Front: L R
Sampling rate : 48.0 KHz
Bit depth : 16 bits
Compression mode : Lossy
Stream size : 136 MiB (4%)
Title : AVO Дохалов
Language : Russian
Default : No
Forced : No
Audio #5
ID : 6
Format : AC-3
Format/Info : Audio Coding 3
Mode extension : CM (complete main)
Format settings, Endianness : Big
Codec ID : A_AC3
Duration : 1h 39mn
Bit rate mode : Constant
Bit rate : 384 Kbps
Channel(s) : 6 channels
Channel positions : Front: L C R, Side: L R, LFE
Sampling rate : 48.0 KHz
Bit depth : 16 bits
Compression mode : Lossy
Stream size : 273 MiB (7%)
Language : English
Default : No
Forced : No
Text #1
ID : 7
Format : UTF-8
Codec ID : S_TEXT/UTF8
Codec ID/Info : UTF-8 Plain Text
Language : Russian
Default : No
Forced : No
Text #2
ID : 8
Format : UTF-8
Codec ID : S_TEXT/UTF8
Codec ID/Info : UTF-8 Plain Text
Title : CC
Language : English
Default : No
Forced : No
Menu
00:00:00.000 : en:Chapter 1
00:05:08.000 : en:Chapter 2
00:15:51.000 : en:Chapter 3
00:23:45.000 : en:Chapter 4
00:32:19.000 : en:Chapter 5
00:43:24.000 : en:Chapter 6
00:53:45.000 : en:Chapter 7
01:03:33.000 : en:Chapter 8
01:10:55.000 : en:Chapter 9
01:19:35.000 : en:Chapter 10
01:26:20.000 : en:Chapter 11
Скриншоты
Скачать

Скачать торрент!

Как скачивать? · Что такое торрент? · Рейтинг и ограничения

Сайт не распространяет и не хранит электронные версии произведений, а лишь предоставляет доступ к создаваемому пользователями каталогу ссылок на торрент-файлы, которые содержат только списки хеш-сумм

[Профиль] [ЛС]
Показать сообщения:    
Ответить на тему

Текущее время: Сегодня 06:00

Часовой пояс: GMT + 4



Вы не можете начинать темы
Вы не можете отвечать на сообщения
Вы не можете редактировать свои сообщения
Вы не можете удалять свои сообщения
Вы не можете голосовать в опросах
Вы не можете прикреплять файлы к сообщениям
Вы не можете скачивать файлы