Дорогой Враг / Близкий враг / Dear Enemy / Dual Crisis / Qin mi di ren (Сю Цзинлэй / Xu Jinglei) [2011, Китай, Великобритания, мелодрама, комедия, HDRip] DVO (Green Tea - Anipower)

Ответить на тему
 
Автор Сообщение

user ®

Стаж: 13 лет

Сообщений: 15071

Пост Пост: #1 от 30-Сен-2015 11:51

[Цитировать]

Дорогой Враг / Близкий враг / Dear Enemy / Dual Crisis / Qin Mi Di Ren
Страна: Китай, Великобритания
Жанр: мелодрама, комедия
Год выпуска: 2011
Продолжительность: 01:32:00
Перевод: Любительский (двухголосый закадровый) [GREEN TEA - ANIPOWER]
Оригинальная аудиодорожка: нет
Cубтитры:нет
Режиссер: Сю Цзинлэй / Xu Jinglei
В ролях: Сю Цзинлэй, Ли Невилл, Джон Дагган, Доминика Ван Сантен, Майк Пэриш, Колин Холт, Стэнли Хуан, Эмбер Катори Уилсон и другие.
Описание:Отношения Дерека и Эйми продлились 7 лет, но из-за очередного кризиса им пришлось расстаться. И вот, спустя полгода, судьба сталкивает их лицом к лицу в борьбе за крупные инвестиции в горнопромышленной отрасли. Он – управляющий крупного инвестиционного банка, она – финансовый консультант их конкурента. Удастся ли им остаться беспристрастными и играть по правилам, либо же чувства возьмут верх? Кто из них одержит победу?
Релиз:

Качество: HDRip
Контейнер: AVI
Видео: 720x304 (2.37:1), 24 fps, XviD build 50 ~1969 kbps avg, 0.38 bit/pixel
Аудио: 448 kHz, AC3 Dolby Digital, 2/0 (L,R) ch, ~192 kbps

Сравнение
[url=http://***/forum/viewtopic.php?t=4144431http://screenshotcomparison.com/comparison/144594]http://***/forum/viewtopic.php?t=4144431h...omparison/144594[/url]
MI
Общее
Полное имя : D:\Мои рипы\Дорогой Враг_HDRip_1460_Некул.avi
Формат : AVI
Формат/Информация : Audio Video Interleave
Размер файла : 1,46 Гбайт
Продолжительность : 1 ч. 36 м.
Общий поток : 2171 Кбит/сек
Программа кодирования : VirtualDubMod 1.5.10.3 | www.virtualdub-fr.org || (build 2550/release)
Библиотека кодирования : VirtualDubMod build 2550/release
Видео
Идентификатор : 0
Формат : MPEG-4 Visual
Профиль формата : Advanced Simple@L5
Параметр BVOP формата : 1
Параметр QPel формата : Нет
Параметр GMC формата : Без точки перехода
Параметр матрицы формата : Default (MPEG)
Идентификатор кодека : XVID
Идентификатор кодека/Подсказка : XviD
Продолжительность : 1 ч. 36 м.
Битрейт : 1970 Кбит/сек
Ширина : 720 пикселей
Высота : 304 пикселя
Соотношение сторон : 2,35:1
Частота кадров : 24,000 кадра/сек
Цветовое пространство : YUV
Субдискретизация насыщенности : 4:2:0
Битовая глубина : 8 бит
Тип развёртки : Прогрессивная
Метод сжатия : С потерями
Бит/(Пиксели*Кадры) : 0.375
Размер потока : 1,33 Гбайт (91%)
Библиотека кодирования : XviD 1.2.1 (UTC 2008-12-04)
Аудио
Идентификатор : 1
Формат : AC-3
Формат/Информация : Audio Coding 3
Расширение режима : CM (complete main)
Параметр Endianness формата : Big
Идентификатор кодека : 2000
Продолжительность : 1 ч. 36 м.
Вид битрейта : Постоянный
Битрейт : 192 Кбит/сек
Каналы : 2 канала
Расположение каналов : Front: L R
Частота : 48,0 КГц
Битовая глубина : 16 бит
Метод сжатия : С потерями
Размер потока : 132 Мбайт (9%)
Выравнивание : Разделение по промежуткам
Продолжительность промежутка : 42 мс. (1,00 видеокадр)
Время предзагрузки промежутка : 500 мс.
Скриншоты
Скачать

Скачать торрент! Дорогой Враг / Близкий враг / Dear Enemy / Dual Crisis / Qin mi di ren (Сю Цзинлэй / Xu Jinglei) [2011, Китай, Великобритания, мелодрама, комедия, HDRip] DVO (Green Tea - Anipower)

Как скачивать? · Что такое торрент? · Рейтинг и ограничения

Сайт не распространяет и не хранит электронные версии произведений, а лишь предоставляет доступ к создаваемому пользователями каталогу ссылок на торрент-файлы, которые содержат только списки хеш-сумм

[Профиль] [ЛС]
Показать сообщения:    
Ответить на тему

Текущее время: Сегодня 16:49

Часовой пояс: GMT + 4



Вы не можете начинать темы
Вы не можете отвечать на сообщения
Вы не можете редактировать свои сообщения
Вы не можете удалять свои сообщения
Вы не можете голосовать в опросах
Вы не можете прикреплять файлы к сообщениям
Вы не можете скачивать файлы