Билборд / Бигборд / Billboard (Лукаш Заджиньски / Lukasz Zadrzynski) [1998, Польша, триллер, HDTV 1080i] DVO + Original Pol

Ответить на тему
 
Автор Сообщение

user ®

Стаж: 7 лет 7 месяцев

Сообщений: 20008

Пост Пост: #1 от 30-Сен-2015 11:51

[Цитировать]

Билборд / Бигборд / Billboard- Страна: Польша
Студия: Agencja Produkcji Filmowej, HBO Polska, Telewizja Polska (TVP)
Жанр: триллер
Год выпуска: 1998
Продолжительность: 01:35:44-Перевод: Профессиональный (двухголосый закадровый)
Cубтитры: нет
Оригинальная аудиодорожка: польский-Режиссер: Лукаш Заджиньски / Lukasz Zadrzynski
В ролях: Рафал Мачковяк, Катя Гусева, Анджей Северин, Богуслав Линда, Петр Фрончевски, Павел Кукиз, Юстина Стечковска, Николай Грабовски, Петр Гасовски, Елена Лазуткина, Катажина Баргеловска, Павел Вильчак, Мариан Глинка, Бартломей Топа, Лукаш Заджиньски- | Релиз: -Описание: Тридцатилетний молодой человек, восходящая звезда рекламного бизнеса, получает от своего босса задание найти привлекательную русскую модель, участвовавшую в съемках, но затем неожиданно пропавшую. Частное расследование приводит его к опасному путешествию в мир порнографии и сексуальных преступлений.-Доп. информация:
- За [url=http://***/forum/viewtopic.php?t=4864763]исходную русскую звуковую[/url] дорожку спасибо 'ellis.
- Русские звуковые дорожки получены путем наложения выделенных русских голосов на декодированные польские дорожки из записи спутниковой трансляции.
- Захват спутниковой трансляции и работа со звуком - xfiles.-Семпл: http://sendfile.su/1159124-Тип релиза: HDTV 1080i
Контейнер: TS
Видео: 1920x1080i (16:9), 25.000 fps, AVC, ~6001 kbps, 0.116 bits/pixel
Аудио 1: Русский, 48.0 KHz, AC3, 6 ch, 384 kbps
Аудио 2: Polish, 48.0 KHz, AC3, 6 ch, 384 kbps
Аудио 3: Polish, 48.0 KHz, AC3, 2 ch, 192 kbps
Аудио 4: Russian, 48.0 KHz, AC3, 2 ch, 192 kbps
MediaInfo
GeneralID : 1 (0x1)Complete name : Billboard 1998 TVP HD 1080i.rus.pol.tsFormat : MPEG-TSFile size : 5.04 GiBDuration : 1h 35mnOverall bit rate mode : VariableOverall bit rate : 7 538 KbpsMaximum Overall bit rate : 35.5 Mbps
VideoID : 4113 (0x1011)Menu ID : 1 (0x1)Format : AVCFormat/Info : Advanced Video CodecFormat profile : High@L4Format settings, CABAC : YesFormat settings, ReFrames : 4 framesCodec ID : 27Duration : 1h 35mnBit rate : 6 001 KbpsWidth : 1 920 pixelsHeight : 1 080 pixelsDisplay aspect ratio : 16:9Frame rate : 25.000 fpsColor space : YUVChroma subsampling : 4:2:0Bit depth : 8 bitsScan type : InterlacedScan order : Top Field FirstBits/(Pixel*Frame) : 0.116Stream size : 4.01 GiB (80%)Color range : LimitedColor primaries : BT.709Transfer characteristics : BT.709Matrix coefficients : BT.709
Audio #1ID : 4352 (0x1100)Menu ID : 1 (0x1)Format : AC-3Format/Info : Audio Coding 3Mode extension : CM (complete main)Format settings, Endianness : BigCodec ID : 129Duration : 1h 35mnBit rate mode : ConstantBit rate : 384 KbpsChannel(s) : 6 channelsChannel positions : Front: L C R, Side: L R, LFESampling rate : 48.0 KHzCompression mode : LossyStream size : 263 MiB (5%)Language : Russian
Audio #2ID : 4353 (0x1101)Menu ID : 1 (0x1)Format : AC-3Format/Info : Audio Coding 3Mode extension : CM (complete main)Format settings, Endianness : BigCodec ID : 129Duration : 1h 35mnBit rate mode : ConstantBit rate : 384 KbpsChannel(s) : 6 channelsChannel positions : Front: L C R, Side: L R, LFESampling rate : 48.0 KHzCompression mode : LossyStream size : 263 MiB (5%)Language : Polish
Audio #3ID : 4354 (0x1102)Menu ID : 1 (0x1)Format : AC-3Format/Info : Audio Coding 3Mode extension : CM (complete main)Format settings, Endianness : BigCodec ID : 129Duration : 1h 35mnBit rate mode : ConstantBit rate : 192 KbpsChannel(s) : 2 channelsChannel positions : Front: L RSampling rate : 48.0 KHzCompression mode : LossyStream size : 131 MiB (3%)Language : Polish
Audio #4ID : 4355 (0x1103)Menu ID : 1 (0x1)Format : AC-3Format/Info : Audio Coding 3Mode extension : CM (complete main)Format settings, Endianness : BigCodec ID : 129Duration : 1h 35mnBit rate mode : ConstantBit rate : 192 KbpsChannel(s) : 2 channelsChannel positions : Front: L RSampling rate : 48.0 KHzCompression mode : LossyStream size : 131 MiB (3%)Language : Russian
Скриншоты
Скачать

Скачать торрент!

Как скачивать? · Что такое торрент? · Рейтинг и ограничения

Сайт не распространяет и не хранит электронные версии произведений, а лишь предоставляет доступ к создаваемому пользователями каталогу ссылок на торрент-файлы, которые содержат только списки хеш-сумм

[Профиль] [ЛС]
Показать сообщения:    
Ответить на тему

Текущее время: Сегодня 23:19

Часовой пояс: GMT + 4



Вы не можете начинать темы
Вы не можете отвечать на сообщения
Вы не можете редактировать свои сообщения
Вы не можете удалять свои сообщения
Вы не можете голосовать в опросах
Вы не можете прикреплять файлы к сообщениям
Вы не можете скачивать файлы