Крутые стволы / Mean Guns (Альберт Пьюн / Albert Pyun) [1997, США, Боевик, триллер, криминал, BDRip 720p] [Director\'s cut] 2x DVO + Sub Rus, Eng + Original Eng

Ответить на тему
 
Автор Сообщение

user ®

Стаж: 7 лет 7 месяцев

Сообщений: 20008

Пост Пост: #1 от 29-Сен-2015 23:30

[Цитировать]

Крутые стволы / Mean Guns / Director's cut
Страна: США
Студия: Filmwerks
Жанр: Боевик, триллер, криминал
Год выпуска: 1997
Продолжительность: 01:50:21
Перевод: Профессиональный (двухголосый закадровый) Союз Видео
Перевод 2: Профессиональный (многоголосый закадровый) Фильм-Экспорт
Перевод 3: Авторский (одноголосый закадровый) Живов Юрий
Перевод 4: Профессиональный (двухголосый закадровый) Twister
Cубтитры: Русские, английские (srt)
Оригинальная аудиодорожка: английский
Режиссер: Альберт Пьюн / Albert Pyun
В ролях: Кристофер Ламберт, Айс-Ти, Майкл Халсли, Дебора Ван Валкенберг, Тина Коте, Юдзи Окумото, Том Мэтьюз, Кимберли Уоррен, Хантер Дугти, Джерри Ректор
Описание: Босс некоего могущественного синдиката собирает в новом здании будущего исправительного учреждения всех, кто провинился перед ним, под предлогом розыгрыша 10 миллионов долларов. Как только все участники игры собираются в назначенное время, представитель синдиката Винсент Мун объясняет правила. Оказывается, что приз поделит между собой тройка счастливчиков, оставшихся в живых. После этого на голову участникам сбрасываются оружие и боеприпасы. После первого отсева выделяются две группировки. В первую входят политический убийца Лу, его коллега Маркус, профессиональная киллер — блондинка Ди и бывшая бухгалтерша Кэм, имеющая компромат против синдиката. Во вторую группировку входят киллеры Хосс, Кроу и случайно оказавшаяся с ними Барби. Часть неопреде­лив­ших­ся киллеров, которые отвлеклись набиванием карманов патронами и снаряжением магазинов, достаточно быстро истребляется первыми двумя группировками. Ряды играющих редеют, через несколько часов их остается только трое, но не всё так просто. На самом деле, Мун собирался не столько ликвидировать всех провинившихся, сколько убрать вышедшего из повиновения синдиката Лу, с которым без такой шумихи просто не справиться. А когда выясняется, что все идет не по плану синдиката и в тройку оставшихся попали Лу, Маркус и Кэм, на сцену выходит Мун с чемоданом денег и несколькими пистолетами, из которых заряжены не все, для того, чтобы вмешаться в ход событий. Но развязка приобретает непредвиденный оборот, в итоге выживает только Кэм, ей достаются 10 миллионов и маленькая Люси - приемная дочь Лу, которая, как и ее бывший папа, очень любит мамбо.
Сэмпл: https://yadi.sk/i/nb0M9diBjMRNk
Тип релиза: BDRip 720p
Контейнер: MKV
Видео: MPEG-4 AVC, 1280x720, 16:9, 23.976 кадр/с, 7200 Кбит/с
Аудио: AC3, 48 kHz, 192 Кбит/с, 2 ch Союз Видео
Аудио 2: AC3, 48 kHz, 192 Кбит/с, 2 ch Фильм-Экспорт
Аудио 3: AC3, 48 kHz, 640 Кбит/с, 2 ch Живов Юрий
Аудио 4: AC3, 48 kHz, 640 Кбит/с, 2 ch Twister
Аудио 5: AC3, 48 kHz, 640 Кбит/с, 2 ch Английский
Лог
x264 [info]: frame I:1542 Avg QP:12,39 size:118189 PSNR Mean Y:50,78 U:53,49 V:54,85 Avg:51,62 Global:51,31
x264 [info]: frame P:34690 Avg QP:14,55 size: 69305 PSNR Mean Y:48,58 U:51,82 V:52,98 Avg:49,48 Global:49,11
x264 [info]: frame B:122515 Avg QP:16,11 size: 27495 PSNR Mean Y:47,31 U:50,83 V:52,25 Avg:48,27 Global:47,86
x264 [info]: consecutive B-frames: 2,6% 3,2% 8,5% 14,8% 9,8% 58,6% 1,7% 0,2% 0,3% 0,3%
x264 [info]: mb I I16..4: 14,4% 62,4% 23,3%
x264 [info]: mb P I16..4: 4,0% 37,1% 4,3% P16..4: 21,2% 19,0% 11,4% 0,5% 0,1% skip: 2,3%
x264 [info]: mb B I16..4: 0,4% 4,4% 0,2% B16..8: 36,5% 21,0% 6,3% direct:13,0% skip:18,1% L0:45,2% L1:37,5% BI:17,3%
x264 [info]: 8x8 transform intra:81,8% inter:36,8%
x264 [info]: direct mvs spatial:99,0% temporal:1,0%
x264 [info]: coded y,uvDC,uvAC intra: 93,6% 89,8% 79,6% inter: 46,6% 46,5% 14,9%
x264 [info]: i16 v,h,dc,p: 21% 7% 20% 51%
x264 [info]: i8 v,h,dc,ddl,ddr,vr,hd,vl,hu: 13% 12% 21% 7% 8% 8% 9% 9% 13%
x264 [info]: i4 v,h,dc,ddl,ddr,vr,hd,vl,hu: 11% 9% 7% 10% 14% 12% 13% 10% 13%
x264 [info]: i8c dc,h,v,p: 54% 19% 17% 10%
x264 [info]: Weighted P-Frames: Y:1,6% UV:0,6%
x264 [info]: ref P L0: 40,9% 9,0% 20,0% 8,5% 7,1% 4,8% 4,4% 2,5% 2,6% 0,3% 0,0%
x264 [info]: ref B L0: 77,9% 9,5% 4,9% 2,8% 2,0% 1,6% 1,0% 0,4%
x264 [info]: ref B L1: 96,5% 3,5%
x264 [info]: SSIM Mean Y:0,9877794 (19,129db)
x264 [info]: PSNR Mean Y:47,619 U:51,069 V:52,435 Avg:48,564 Global:48,129 kb/s:7195,21
MediaInfo
General
Unique ID : 55275442398043744925373379116010142634 (0x2995A9B86D016C02C0FE39C1F8A97BAA)
Complete name : Mean.Guns.Director's.cut.1997.BDRip.720.mkv
Format : Matroska
Format version : Version 4 / Version 2
File size : 7.32 GiB
Duration : 1h 50mn
Overall bit rate : 9 503 Kbps
Encoded date : UTC 2015-09-27 14:15:54
Writing application : mkvmerge v6.7.0 ('Back to the Ground') 64bit built on Jan 9 2014 18:03:17
Writing library : libebml v1.3.0 + libmatroska v1.4.1
TITLE : Mean Guns
ARTIST : Christopher Lambert, Ice-T, Michael Halsey
DIRECTOR : Director: Albert Pyun
DATE_RELEASED : 1997
SUMMARY : Rip by lx1966
GENRE : Action, Crime, Thriller
DESCRIPTION : 21 November 1997 (USA)
SYNOPSIS : A gangster boss (Ice-T) has a list of about 100 people who have screwed up at one point or another. Rather than outright killing them, he decides to have a little fun by putting all of them together in a high security prison, unarmed, and dumping bucketfulls of guns, ammo, and baseball bats on them and letting them kill each other. The final three who survive are given a prize of 10 million dollars. Let chaos reign.
Attachment : Yes
Video
ID : 1
Format : AVC
Format/Info : Advanced Video Codec
Format profile : High@L4.0
Format settings, CABAC : Yes
Format settings, ReFrames : 9 frames
Codec ID : V_MPEG4/ISO/AVC
Duration : 1h 50mn
Bit rate : 7 200 Kbps
Width : 1 280 pixels
Height : 720 pixels
Display aspect ratio : 16:9
Frame rate mode : Constant
Frame rate : 23.976 fps
Color space : YUV
Chroma subsampling : 4:2:0
Bit depth : 8 bits
Scan type : Progressive
Bits/(Pixel*Frame) : 0.326
Stream size : 5.40 GiB (74%)
Title : Mean Guns / Director's cut / Режиссёр: Альберт Пьюн / Albert Pyun
Writing library : x264 core 142 r2389 956c8d8
Encoding settings : cabac=1 / ref=9 / deblock=1:0:0 / analyse=0x3:0x133 / me=umh / subme=9 / psy=1 / psy_rd=1,00:0,20 / mixed_ref=1 / me_range=24 / chroma_me=1 / trellis=2 / 8x8dct=1 / cqm=0 / deadzone=21,11 / fast_pskip=0 / chroma_qp_offset=-3 / threads=6 / lookahead_threads=1 / sliced_threads=0 / nr=0 / decimate=0 / interlaced=0 / bluray_compat=0 / constrained_intra=0 / bframes=9 / b_pyramid=2 / b_adapt=2 / b_bias=0 / direct=3 / weightb=1 / open_gop=0 / weightp=2 / keyint=240 / keyint_min=24 / scenecut=40 / intra_refresh=0 / rc_lookahead=60 / rc=2pass / mbtree=0 / bitrate=7200 / ratetol=1,0 / qcomp=0,60 / qpmin=0 / qpmax=69 / qpstep=4 / cplxblur=20,0 / qblur=0,5 / vbv_maxrate=20000 / vbv_bufsize=25000 / nal_hrd=none / filler=0 / ip_ratio=1,40 / pb_ratio=1,30 / aq=1:1,00
Language : English
Default : Yes
Forced : No
Color primaries : BT.709
Transfer characteristics : BT.709
Matrix coefficients : BT.709
Audio #1
ID : 2
Format : AC-3
Format/Info : Audio Coding 3
Mode extension : CM (complete main)
Format settings, Endianness : Big
Codec ID : A_AC3
Duration : 1h 50mn
Bit rate mode : Constant
Bit rate : 192 Kbps
Channel(s) : 2 channels
Channel positions : Front: L R
Sampling rate : 48.0 KHz
Bit depth : 16 bits
Compression mode : Lossy
Stream size : 152 MiB (2%)
Title : AC-3, 48.0 KHz, 192 Кбит/с, 2 ch, Профессиональный (двухголосый закадровый) Союз Видео
Language : Russian
Default : Yes
Forced : No
Audio #2
ID : 3
Format : AC-3
Format/Info : Audio Coding 3
Mode extension : CM (complete main)
Format settings, Endianness : Big
Codec ID : A_AC3
Duration : 1h 50mn
Bit rate mode : Constant
Bit rate : 192 Kbps
Channel(s) : 2 channels
Channel positions : Front: L R
Sampling rate : 48.0 KHz
Bit depth : 16 bits
Compression mode : Lossy
Stream size : 152 MiB (2%)
Title : AC-3, 48.0 KHz, 192 Кбит/с, 2 ch, Профессиональный (многоголосый закадровый) Фильм-Экспорт
Language : Russian
Default : No
Forced : No
Audio #3
ID : 4
Format : AC-3
Format/Info : Audio Coding 3
Mode extension : CM (complete main)
Format settings, Endianness : Big
Codec ID : A_AC3
Duration : 1h 50mn
Bit rate mode : Constant
Bit rate : 640 Kbps
Channel(s) : 2 channels
Channel positions : Front: L R
Sampling rate : 48.0 KHz
Bit depth : 16 bits
Compression mode : Lossy
Stream size : 505 MiB (7%)
Title : AC-3, 48.0 KHz, 640 Кбит/с, 2 ch, Авторский (одноголосый закадровый) Живов Юрий
Language : Russian
Default : No
Forced : No
Audio #4
ID : 5
Format : AC-3
Format/Info : Audio Coding 3
Mode extension : CM (complete main)
Format settings, Endianness : Big
Codec ID : A_AC3
Duration : 1h 50mn
Bit rate mode : Constant
Bit rate : 640 Kbps
Channel(s) : 2 channels
Channel positions : Front: L R
Sampling rate : 48.0 KHz
Bit depth : 16 bits
Compression mode : Lossy
Stream size : 505 MiB (7%)
Title : AC-3, 48.0 KHz, 640 Кбит/с, 2 ch, Профессиональный (двухголосый закадровый) Twister
Language : Russian
Default : No
Forced : No
Audio #5
ID : 6
Format : AC-3
Format/Info : Audio Coding 3
Mode extension : CM (complete main)
Format settings, Endianness : Big
Codec ID : A_AC3
Duration : 1h 50mn
Bit rate mode : Constant
Bit rate : 640 Kbps
Channel(s) : 2 channels
Channel positions : Front: L R
Sampling rate : 48.0 KHz
Bit depth : 16 bits
Compression mode : Lossy
Stream size : 505 MiB (7%)
Title : AC-3, 48.0 KHz, 640 Кбит/с, 2 ch
Language : English
Default : No
Forced : No
Text #1
ID : 7
Format : UTF-8
Codec ID : S_TEXT/UTF8
Codec ID/Info : UTF-8 Plain Text
Language : Russian
Default : No
Forced : No
Text #2
ID : 8
Format : UTF-8
Codec ID : S_TEXT/UTF8
Codec ID/Info : UTF-8 Plain Text
Language : English
Default : No
Forced : No
Сравнение с исходником
рип
рип
рип
Скриншоты
Скачать

Скачать торрент!

Как скачивать? · Что такое торрент? · Рейтинг и ограничения

Сайт не распространяет и не хранит электронные версии произведений, а лишь предоставляет доступ к создаваемому пользователями каталогу ссылок на торрент-файлы, которые содержат только списки хеш-сумм

[Профиль] [ЛС]
Показать сообщения:    
Ответить на тему

Текущее время: Сегодня 21:52

Часовой пояс: GMT + 4



Вы не можете начинать темы
Вы не можете отвечать на сообщения
Вы не можете редактировать свои сообщения
Вы не можете удалять свои сообщения
Вы не можете голосовать в опросах
Вы не можете прикреплять файлы к сообщениям
Вы не можете скачивать файлы