Комната с видом / A Room with a View (Джеймс Айвори / James Ivory) [1985, Великобритания, драма, мелодрама, BDRip 720p] [Criterion Collection] 2x MVO + Sub (2xRus, Eng) + Original Eng

Ответить на тему
 
Автор Сообщение

user ®

Стаж: 7 лет 7 месяцев

Сообщений: 20008

Пост Пост: #1 от 29-Сен-2015 23:30

[Цитировать]

Комната с видом / A Room with a View
Страна: Великобритания
Жанр: драма, мелодрама
Год выпуска: 1985
Продолжительность: 01:57:11
Перевод: Профессиональный (многоголосый закадровый) Cinema Prestige
Перевод: Профессиональный (многоголосый закадровый)
Cубтитры: русские (2 вида), английские
Оригинальная аудиодорожка: английский-Режиссер: Джеймс Айвори / James Ivory
В ролях: Мэгги Смит, Хелена Бонэм Картер, Денхолм Эллиотт, Джулиан Сэндз, Саймон Кэллоу, Патрик Годфри, Джуди Денч, Фабия Дрейк, Дэниэл Дэй-Льюис, Мария Бритнева, Розмари Лич, Руперт Грэйвз, Питер Селлье, Китти Элдридж, Луиджи Ди Фиоре, Джоан Хенли, Мэтилок Гиббс, Патриция Лоуренс
Описание: По одноимённому роману Э. М. Форстера.
1907 год. Люси, юная благовоспитанная английская леди, путешествует по Италии в сопровождении тети Шарлотты, чье воспитание просто безупречно. Но после того, как Люси удостоилась поцелуя от недостаточно «светского» поклонника, ее не спасет от страданий любви ни поспешный отъезд в безмятежную Англию, ни помолвка с «подходящим» джентльменом своего круга…
IMDb || КиноПоиск-Тип релиза: BDRip 720p [EbP]
Контейнер: MKV
Видео: x264/AVC, 1200x720 at 23.976 fps, 12.5 Mbps
Аудио#1: Russian: 48 kHz, AC3, 5.1 ch, 384 kbps
Аудио#2: Russian: 48 kHz, AC3, 2.0 ch, 192 kbps
Аудио#3: English: 48 kHz, FLAC, 2.0 ch, 608 kbps
Формат субтитров: softsub (SRT)
Сэмпл
Дополнительно
За перевод с издания "Cinema Prestige" спасибо Тихиро.
MediaInfo
General
Unique ID : 216664388182277201211838265077157609383 (0xA3000B1640030692B2BBFAF95FA43FA7)
Complete name : A.Room.with.a.View.1985.Criterion.720p.x264-EbP. rutracker.mkv
Format : Matroska
Format version : Version 2
File size : 11.4 GiB
Duration : 1h 57mn
Overall bit rate mode : Variable
Overall bit rate : 13.9 Mbps
Movie name : Release for RuTracker
Writing application : mkvmerge v5.0.1 ('Es ist Sommer') built on Nov 6 2011 16:23:40
Writing library : libebml v1.2.2 + libmatroska v1.3.0
Video
ID : 1
Format : AVC
Format/Info : Advanced Video Codec
Format profile : High@L4.1
Format settings, CABAC : Yes
Format settings, ReFrames : 9 frames
Codec ID : V_MPEG4/ISO/AVC
Duration : 1h 57mn
Width : 1 200 pixels
Height : 720 pixels
Display aspect ratio : 1.667
Frame rate mode : Constant
Frame rate : 23.976 fps
Color space : YUV
Chroma subsampling : 4:2:0
Bit depth : 8 bits
Scan type : Progressive
Title : A.Room.with.a.View.1985.Criterion.720p.x264-EbP. rutracker
Writing library : x264 core 148 r2597 e86f3a1
Encoding settings : cabac=1 / ref=9 / deblock=1:-3:-3 / analyse=0x3:0x133 / me=umh / subme=10 / psy=1 / psy_rd=1.10:0.00 / mixed_ref=1 / me_range=16 / chroma_me=1 / trellis=2 / 8x8dct=1 / cqm=0 / deadzone=21,11 / fast_pskip=0 / chroma_qp_offset=-2 / threads=12 / lookahead_threads=2 / sliced_threads=0 / nr=0 / decimate=0 / interlaced=0 / bluray_compat=0 / constrained_intra=0 / bframes=9 / b_pyramid=2 / b_adapt=2 / b_bias=0 / direct=3 / weightb=1 / open_gop=0 / weightp=2 / keyint=250 / keyint_min=23 / scenecut=40 / intra_refresh=0 / rc=crf / mbtree=0 / crf=17.0 / qcomp=0.60 / qpmin=0 / qpmax=69 / qpstep=4 / ip_ratio=1.40 / pb_ratio=1.30 / aq=3:0.60
Language : English
Default : Yes
Forced : No
Audio #1
ID : 2
Format : AC-3
Format/Info : Audio Coding 3
Mode extension : CM (complete main)
Format settings, Endianness : Big
Codec ID : A_AC3
Duration : 1h 57mn
Bit rate mode : Constant
Bit rate : 384 Kbps
Channel(s) : 6 channels
Channel positions : Front: L C R, Side: L R, LFE
Sampling rate : 48.0 KHz
Bit depth : 16 bits
Compression mode : Lossy
Stream size : 322 MiB (3%)
Title : Cinema Prestige
Language : Russian
Default : Yes
Forced : No
Audio #2
ID : 3
Format : AC-3
Format/Info : Audio Coding 3
Mode extension : CM (complete main)
Format settings, Endianness : Big
Codec ID : A_AC3
Duration : 1h 57mn
Bit rate mode : Constant
Bit rate : 192 Kbps
Channel(s) : 2 channels
Channel positions : Front: L R
Sampling rate : 48.0 KHz
Bit depth : 16 bits
Compression mode : Lossy
Stream size : 161 MiB (1%)
Language : Russian
Default : No
Forced : No
Audio #3
ID : 4
Format : FLAC
Format/Info : Free Lossless Audio Codec
Codec ID : A_FLAC
Duration : 1h 57mn
Bit rate mode : Variable
Channel(s) : 2 channels
Sampling rate : 48.0 KHz
Bit depth : 16 bits
Writing library : libFLAC 1.2.1 (UTC 2007-09-17)
Language : English
Default : No
Forced : No
Text #1
ID : 5
Format : UTF-8
Codec ID : S_TEXT/UTF8
Codec ID/Info : UTF-8 Plain Text
Title : Cinema Prestige
Language : Russian
Default : No
Forced : No
Text #2
ID : 6
Format : UTF-8
Codec ID : S_TEXT/UTF8
Codec ID/Info : UTF-8 Plain Text
Title : jam&shoot
Language : Russian
Default : No
Forced : No
Text #3
ID : 7
Format : UTF-8
Codec ID : S_TEXT/UTF8
Codec ID/Info : UTF-8 Plain Text
Language : English
Default : No
Forced : No
Menu
00:00:00.000 : en:00:00:00.000
00:10:30.213 : en:00:10:30.213
00:15:04.695 : en:00:15:04.695
00:28:07.019 : en:00:28:07.019
00:39:13.643 : en:00:39:13.643
00:43:21.974 : en:00:43:21.974
00:46:35.918 : en:00:46:35.918
00:53:23.033 : en:00:53:23.033
00:56:37.227 : en:00:56:37.227
01:01:19.467 : en:01:01:19.467
01:07:49.482 : en:01:07:49.482
01:18:06.849 : en:01:18:06.849
01:24:48.792 : en:01:24:48.792
01:28:22.297 : en:01:28:22.297
01:35:25.887 : en:01:35:25.887
01:47:43.123 : en:01:47:43.123
01:51:18.797 : en:01:51:18.797
Скриншоты
Скачать

Скачать торрент!

Как скачивать? · Что такое торрент? · Рейтинг и ограничения

Сайт не распространяет и не хранит электронные версии произведений, а лишь предоставляет доступ к создаваемому пользователями каталогу ссылок на торрент-файлы, которые содержат только списки хеш-сумм

[Профиль] [ЛС]
Показать сообщения:    
Ответить на тему

Текущее время: Сегодня 12:08

Часовой пояс: GMT + 4



Вы не можете начинать темы
Вы не можете отвечать на сообщения
Вы не можете редактировать свои сообщения
Вы не можете удалять свои сообщения
Вы не можете голосовать в опросах
Вы не можете прикреплять файлы к сообщениям
Вы не можете скачивать файлы