Вегетарианка / Vegetarian / Chaesikjuuija (Ву-Сьонг Лим / Woo-Seong Lim) [2009, Южная Корея, Драма, DVDRip] DVO (DeadSno & Den904)

Ответить на тему
 
Автор Сообщение

user ®

Стаж: 13 лет

Сообщений: 15071

Пост Пост: #1 от 29-Сен-2015 01:51

[Цитировать]

Вегетарианка / Vegetarian / Chaesikjuuija
Страна: Южная Корея
Жанр: Драма
Год выпуска: 2009
Продолжительность: 01:53:05
Перевод: Любительский (двухголосый закадровый) DeadSno & Den904 по переводу sergik1
Cубтитры: нет
Режиссер: Ву-Сьонг Лим / Woo-Seong Lim
В ролях: Мин-со Чхэ, Ким Хён Сун, Ким Ый Чжин, Ким Ё Чжин, Ён-чжэ Ким, Юн Джи Хэ
Описание: Вот уже долгое время молодую женщину Ён Хе мучают странные кошмары, которые подталкивают ее к решению полностью отказаться от мяса и перейти на вегетарианскую пищу. Ён Хе не встречает понимания у родных, которые считают ее поведение обыкновенным сумасбродством, и постепенно героиня отдаляется от мужа и других членов семьи. Ее сестра пытается, как может, помочь ей разобраться в себе, но поддержку Ён Хе находит лишь у своего зятя, художника. Между героями возникает влечение, которое они выражают в совместном творчестве, постепенно помогающем героине разобраться в истинных причинах ее состояния Это решение вызывает непонимание и недовольство со стороны её родных. Семейный конфликт приводит к печальным последствиям…
Сэмпл: http://multi-up.com/1068619
Качество видео: DVDRip
Формат видео: AVI
Видео: XVID, 704x288, 1266 kbps, 23.976 fps
Аудио: AC-3, 448 kbps, 48 kHZ, 6 ch
MediaInfo
Format: AVI
Format/Info: Audio Video Interleave
File size: 1.36 GiB
Duration: 1h 53mn
Overall bit rate: 1 724 Kbps
Writing application: VirtualDubMod 1.5.10.2 (build 2540/release)
Writing library: VirtualDubMod build 2540/release
Format: MPEG-4 Visual
Format profile: Advanced Simple@L5
Format settings, BVOP: 1
Format settings, QPel: No
Format settings, GMC: No warppoints
Format settings, Matrix: Default (MPEG)
Muxing mode: Packed bitstream
Codec ID: XVID
Codec ID/Hint: XviD
Duration: 1h 53mn
Bit rate: 1 266 Kbps
Width: 704 pixels
Height: 288 pixels
Display aspect ratio: 2.40:1
Frame rate: 23.976 fps
Color space: YUV
Chroma subsampling: 4:2:0
Bit depth: 8 bits
Scan type: Progressive
Compression mode: Lossy
Bits/(Pixel*Frame): 0.260
Stream size: 1.00 GiB (73%)
Writing library: XviD 1.2.0.dev47 (UTC 2006-11-01)
Format: AC-3
Format/Info: Audio Coding 3
Mode extension: CM (complete main)
Format settings, Endianness: Big
Codec ID: 2000
Duration: 1h 53mn
Bit rate mode: Constant
Bit rate: 448 Kbps
Channel(s): 6 channels
Channel positions: Front: L C R, Side: L R, LFE
Sampling rate: 48.0 KHz
Bit depth: 16 bits
Compression mode: Lossy
Stream size: 362 MiB (26%)
Alignment: Split accross interleaves
Interleave, duration: 42 ms (1.00 video frame)
Interleave, preload duration: 500 ms
Скриншот c названием фильма Скриншоты
Скачать

Скачать торрент! Вегетарианка / Vegetarian / Chaesikjuuija (Ву-Сьонг Лим / Woo-Seong Lim) [2009, Южная Корея, Драма, DVDRip] DVO (DeadSno & Den904)

Как скачивать? · Что такое торрент? · Рейтинг и ограничения

Сайт не распространяет и не хранит электронные версии произведений, а лишь предоставляет доступ к создаваемому пользователями каталогу ссылок на торрент-файлы, которые содержат только списки хеш-сумм

[Профиль] [ЛС]
Показать сообщения:    
Ответить на тему

Текущее время: Сегодня 10:47

Часовой пояс: GMT + 4



Вы не можете начинать темы
Вы не можете отвечать на сообщения
Вы не можете редактировать свои сообщения
Вы не можете удалять свои сообщения
Вы не можете голосовать в опросах
Вы не можете прикреплять файлы к сообщениям
Вы не можете скачивать файлы