Кин-дза-дза! (Георгий Данелия) [1986, СССР, Трагикомедия, фантастика, BDRip-AVC]

Ответить на тему
 
Автор Сообщение

user ®

Стаж: 7 лет 7 месяцев

Сообщений: 20008

Пост Пост: #1 от 29-Сен-2015 01:51

[Цитировать]

Кин-дза-дза!- Жанр: Трагикомедия, фантастика
Год выпуска: 1986
Продолжительность: 02:12:50
Cубтитры: нет-Режиссёр
Георгий Данелия
В ролях:
Станислав Любшин, Евгений Леонов, Юрий Яковлев, Леван Габриадзе, Ольга Машная, Ирина Шмелева, Лев Перфилов, Георгий Данелия, Александра Дорохина, Галина Данелия-Юркова-ОписаниеПрораб Владимир Николаевич Машков и не подозревал, что обычный путь до универсама за хлебом и макаронами обернется межгалактическими путешествиями. А все эта встреча со студентом в кроличьей шапке с большой сумкой и с каким-то маленьким устройством — «машинкой перемещения», как он ее сам называл.
Короче, нажал на кнопку — и оказался вместе с молодым человеком в пустыне, и не в каких-нибудь Каракумах, а на планете-пустыне Плюк в тентуре, галактика Кин-дза-дза в спирали…
-Сэмпл

IMDb: 8.20 (8083)
Качество видео: BDRip-AVC [url=http://***/forum/viewtopic.php?t=4528485]Blu-ray Disc 1080p[/url]
Формат видео: MKV
Видео: AVC 1839 Kbps 688 x 502 (1.371) 23.976 fps
Аудио: AC-3 448 Kbps 6 channels, 48.0 KHz
Сравнения
Сравнение с [url=http://***/forum/viewtopic.php?t=3852331]этим[/url] релизом
Сравнение с [url=http://***/forum/viewtopic.php?t=3796132]этим[/url] релизом
MediaInfo | Log
Log
x264 [info]: frame I:1095 Avg QP:17.67 size: 56746
x264 [info]: frame P:38422 Avg QP:19.20 size: 22693
x264 [info]: frame B:151556 Avg QP:21.69 size: 6223
x264 [info]: consecutive B-frames: 1.2% 1.8% 7.1% 14.2% 16.9% 47.7% 5.3% 1.1% 1.8% 0.6% 0.7% 1.0% 0.2% 0.2% 0.2%
x264 [info]: mb I I16..4: 6.8% 74.0% 19.1%
x264 [info]: mb P I16..4: 0.2% 11.7% 1.2% P16..4: 28.7% 34.1% 18.0% 3.2% 0.4% skip: 2.5%
x264 [info]: mb B I16..4: 0.0% 1.1% 0.1% B16..8: 35.6% 21.3% 4.8% direct: 5.7% skip:31.3% L0:39.2% L1:48.1% BI:12.8%
x264 [info]: 8x8 transform intra:87.2% inter:55.0%
x264 [info]: direct mvs spatial:100.0% temporal:0.0%
x264 [info]: coded y,uvDC,uvAC intra: 97.1% 66.4% 35.9% inter: 27.6% 14.4% 1.0%
x264 [info]: i16 v,h,dc,p: 35% 9% 21% 35%
x264 [info]: i8 v,h,dc,ddl,ddr,vr,hd,vl,hu: 9% 7% 17% 10% 12% 11% 12% 10% 12%
x264 [info]: i4 v,h,dc,ddl,ddr,vr,hd,vl,hu: 21% 7% 5% 8% 13% 13% 12% 11% 11%
x264 [info]: i8c dc,h,v,p: 28% 41% 19% 13%
x264 [info]: Weighted P-Frames: Y:6.1% UV:2.9%
x264 [info]: ref P L0: 45.2% 12.7% 16.5% 5.0% 4.6% 3.1% 3.2% 1.6% 1.8% 1.3% 1.4% 1.1% 1.2% 1.1% 0.2% 0.0%
x264 [info]: ref B L0: 77.3% 9.7% 3.8% 2.2% 1.5% 1.4% 1.1% 0.8% 0.6% 0.6% 0.5% 0.3% 0.2%
x264 [info]: ref B L1: 93.8% 6.2%
x264 [info]: kb/s:1884.45
x264 [total]: encoded 191073 frames, 12.12 fps, 1884.45 kb/s, duration 4:22:50.71
Format : Matroska
Format version : Version 4 / Version 2
File size : 2.17 GiB
Duration : 2h 12mn
Overall bit rate : 2 334 Kbps
Encoded date : UTC 2015-09-02 17:54:14
Writing application : mkvmerge v6.7.0 ('Back to the Ground') 32bit built on Jan 8 2014 15:03:17
Writing library : libebml v1.3.0 + libmatroska v1.4.1
Video
ID : 1
Format : AVC
Format/Info : Advanced Video Codec
Format profile : High@L4.1
Format settings, CABAC : Yes
Format settings, ReFrames : 14 frames
Codec ID : V_MPEG4/ISO/AVC
Duration : 2h 12mn
Bit rate : 1 839 Kbps
Width : 688 pixels
Height : 502 pixels
Display aspect ratio : 1.371
Frame rate mode : Constant
Frame rate : 23.976 fps
Color space : YUV
Chroma subsampling : 4:2:0
Bit depth : 8 bits
Scan type : Progressive
Bits/(Pixel*Frame) : 0.222
Stream size : 1.71 GiB (79%)
Title : РљРёРЅ-РґР·Р°-РґР·Р°! [1986]
Writing library : x264 core 148 r2579kMod 73ae2d1
Encoding settings : cabac=1 / ref=14 / deblock=1:-2:-1 / analyse=0x3:0x133 / me=umh / subme=11 / psy=1 / fade_compensate=0.00 / psy_rd=1.00:0.05 / mixed_ref=1 / me_range=48 / chroma_me=1 / trellis=2 / 8x8dct=1 / cqm=0 / deadzone=21,11 / fast_pskip=0 / chroma_qp_offset=-3 / threads=12 / lookahead_threads=3 / sliced_threads=0 / nr=0 / decimate=1 / interlaced=0 / bluray_compat=0 / constrained_intra=0 / fgo=0 / bframes=14 / b_pyramid=2 / b_adapt=2 / b_bias=0 / direct=3 / weightb=1 / open_gop=0 / weightp=2 / keyint=250 / keyint_min=23 / scenecut=40 / intra_refresh=0 / rc_lookahead=80 / rc=crf / mbtree=0 / crf=18.8000 / qcomp=0.60 / qpmin=0 / qpmax=69 / qpstep=4 / vbv_maxrate=50000 / vbv_bufsize=62500 / crf_max=0.0 / nal_hrd=none / filler=0 / ip_ratio=1.40 / pb_ratio=1.30 / aq=3:0.90
Language : Russian
Default : Yes
Forced : No
Audio
ID : 2
Format : AC-3
Format/Info : Audio Coding 3
Mode extension : CM (complete main)
Format settings, Endianness : Big
Codec ID : A_AC3
Duration : 2h 12mn
Bit rate mode : Constant
Bit rate : 448 Kbps
Channel(s) : 6 channels
Channel positions : Front: L C R, Side: L R, LFE
Sampling rate : 48.0 KHz
Compression mode : Lossy
Stream size : 426 MiB (19%)
Title : Original
Language : Russian
Default : Yes
Forced : No
Menu
00:00:00.000 : en:00:00:00.000
00:08:32.512 : en:00:08:32.512
00:16:33.284 : en:00:16:33.284
00:20:35.901 : en:00:20:35.901
00:25:14.138 : en:00:25:14.138
00:33:52.030 : en:00:33:52.030
00:42:38.097 : en:00:42:38.097
00:48:46.006 : en:00:48:46.006
00:54:04.992 : en:00:54:04.992
01:03:32.225 : en:01:03:32.225
01:06:12.969 : en:01:06:12.969
01:15:46.041 : en:01:15:46.041
01:22:58.682 : en:01:22:58.682
01:32:14.487 : en:01:32:14.487
01:36:48.344 : en:01:36:48.344
01:40:16.427 : en:01:40:16.427
01:46:45.816 : en:01:46:45.816
01:51:27.890 : en:01:51:27.890
02:01:11.181 : en:02:01:11.181
02:07:11.874 : en:02:07:11.874
Скриншоты
Скачать

Скачать торрент!

Как скачивать? · Что такое торрент? · Рейтинг и ограничения

Сайт не распространяет и не хранит электронные версии произведений, а лишь предоставляет доступ к создаваемому пользователями каталогу ссылок на торрент-файлы, которые содержат только списки хеш-сумм

[Профиль] [ЛС]
Показать сообщения:    
Ответить на тему

Текущее время: Сегодня 14:34

Часовой пояс: GMT + 4



Вы не можете начинать темы
Вы не можете отвечать на сообщения
Вы не можете редактировать свои сообщения
Вы не можете удалять свои сообщения
Вы не можете голосовать в опросах
Вы не можете прикреплять файлы к сообщениям
Вы не можете скачивать файлы