Дом Тигра / Tiger House (Томас Дэйли / Thomas Daley) [2015, Великобритания, ЮАР, боевик, триллер, драма, криминал, WEB-DL 720p] VO + Original Eng

Ответить на тему
 
Автор Сообщение

user ®

Стаж: 7 лет 7 месяцев

Сообщений: 20008

Пост Пост: #1 от 28-Сен-2015 22:45

[Цитировать]

Дом Тигра / Tiger House
Страна: Великобритания, ЮАР
Жанр: боевик, триллер, драма, криминал
Год выпуска: 2015
Продолжительность: 01:22:40
Перевод: Одноголосый закадровый
Cубтитры: нет
Оригинальная аудиодорожка: английский
Режиссер: Томас Дэйли / Thomas Daley
В ролях: Эд Скрейн, Кая Скоделарио, Дюгрей Скотт, Брэндон Оре, Лэнгли Кирквуд, Джули Саммерс, Дэниэл Бойд, Эндрю Брент
Описание: Келли, главная героиня кинофильма, ранее даже и подумать не могла о том, что одно из ее романтических свиданий может закончиться совсем неожиданным поворотом событий. И вот молодая парочка остались совершенно одни. Накрытый стол, свечи, романтика… Все говорит само за себя. Но всем планам молодых людей пришлось рухнуться в последний момент. В дом врываются грабители, которые хватают в заложники и парня, и его родителей. Только лишь Келли чудом удалось не попасться в руки бандитам и сбежать. Но что же делать в подобной ситуации и как поступить? Ведь нужно спасать своего любимого. Обращаться в полицию просто бессмысленно, так как неизвестна реакция преступников, ведь они могут и убить. Келли недолго думала и решается брать все в свои руки. Сильное чувство любви, ярая злость и желание победить овладевают гимнасткой Келли и она рьяно принимается за дело…
Сэмпл: http://sendfile.su/1158634
Качество видео: WEB-DL 720p
Формат видео: MKV
Видео: AVC1, 1280:540, 2.40:1, 24,000 кадра/сек, 3905 Кбит/сек
Аудио: AC3, 44.1 КГц, 192 Кбит/сек, 2 каналов
Аудио 2: AC3, 48,0 КГц, 384 Кбит/сек, 6 каналов

MediaInfo
Общее
Формат : Matroska
Версия формата : Version 4 / Version 2
Размер файла : 2,64 Гбайт
Продолжительность : 1 ч. 22 м.
Общий поток : 4572 Кбит/сек
Дата кодирования : UTC 2015-09-12 10:23:16
Программа кодирования : mkvmerge v6.1.0 ('Old Devil') built on Mar 4 2013 09:10:42
Библиотека кодирования : libebml v1.3.0 + libmatroska v1.4.0
Видео
Идентификатор : 1
Формат : AVC
Формат/Информация : Advanced Video Codec
Профиль формата : Main@L3.1
Параметр CABAC формата : Нет
Параметр ReFrames формата : 2 кадра
Идентификатор кодека : V_MPEG4/ISO/AVC
Продолжительность : 1 ч. 22 м.
Битрейт : 3905 Кбит/сек
Ширина : 1280 пикселей
Высота : 540 пикселей
Соотношение сторон : 2,40:1
Режим частоты кадров : Постоянный
Частота кадров : 24,000 кадра/сек
Цветовое пространство : YUV
Субдискретизация насыщенности : 4:2:0
Битовая глубина : 8 бит
Тип развёртки : Прогрессивная
Бит/(Пиксели*Кадры) : 0.235
Размер потока : 2,26 Гбайт (85%)
Язык : English
Default : Да
Forced : Нет
Цветовой диапазон : Limited
Основные цвета : BT.709
Характеристики трансфера : BT.709
Коэффициенты матрицы : BT.709
Аудио #1
Идентификатор : 2
Формат : AC-3
Формат/Информация : Audio Coding 3
Расширение режима : CM (complete main)
Параметр Endianness формата : Big
Идентификатор кодека : A_AC3
Продолжительность : 1 ч. 22 м.
Вид битрейта : Постоянный
Битрейт : 192 Кбит/сек
Каналы : 2 канала
Расположение каналов : Front: L R
Частота : 44,1 КГц
Метод сжатия : С потерями
Размер потока : 114 Мбайт (4%)
Язык : Russian
Default : Да
Forced : Нет
Аудио #2
Идентификатор : 3
Формат : AC-3
Формат/Информация : Audio Coding 3
Расширение режима : CM (complete main)
Параметр Endianness формата : Big
Идентификатор кодека : A_AC3
Продолжительность : 1 ч. 22 м.
Вид битрейта : Постоянный
Битрейт : 384 Кбит/сек
Каналы : 6 каналов
Расположение каналов : Front: L C R, Side: L R, LFE
Частота : 48,0 КГц
Метод сжатия : С потерями
Размер потока : 227 Мбайт (8%)
Язык : English
Default : Нет
Forced : Нет
Меню
00:00:00.000 : en:1
00:11:07.000 : en:2
00:21:46.000 : en:3
00:31:44.000 : en:4
00:39:42.000 : en:5
00:47:08.000 : en:6
00:58:17.000 : en:7
01:05:08.000 : en:8
01:10:16.000 : en:9
01:16:04.000 : en:10
Скриншот c названием фильма Скриншоты
Скачать

Скачать торрент!

Как скачивать? · Что такое торрент? · Рейтинг и ограничения

Сайт не распространяет и не хранит электронные версии произведений, а лишь предоставляет доступ к создаваемому пользователями каталогу ссылок на торрент-файлы, которые содержат только списки хеш-сумм

[Профиль] [ЛС]
Показать сообщения:    
Ответить на тему

Текущее время: Сегодня 06:01

Часовой пояс: GMT + 4



Вы не можете начинать темы
Вы не можете отвечать на сообщения
Вы не можете редактировать свои сообщения
Вы не можете удалять свои сообщения
Вы не можете голосовать в опросах
Вы не можете прикреплять файлы к сообщениям
Вы не можете скачивать файлы