Прогулка по Миссисипи / Mississippi Grind (Анна Боден / Anna Boden, Райан Флек / Ryan Fleck) [2015, США, Драма, WEB-DLRip] VO (RAIM)

Ответить на тему
 
Автор Сообщение

user ®

Стаж: 7 лет 7 месяцев

Сообщений: 20008

Пост Пост: #1 от 28-Сен-2015 16:33

[Цитировать]

Прогулка по Миссисипи / Mississippi Grind- -Страна: США, Electric City Entertainment, Gowanus Projections
Жанр: Драма
Год выпуска: 2015
Продолжительность: 01:48:19
Перевод: Одноголосый закадровый RAIM
Cубтитры: нет-Режиссер: Анна Боден / Anna Boden, Райан Флек / Ryan Fleck-В ролях: Бен Мендельсон, Райан Рейнольдс, Ивонн Ландри, Энтони Ховард, Джэйсон Уорнер Смит, Керри Кехилл, Джейн МакНейлл, П.Дж. Маршалл, Стефани Онор-Описание: Фильм расскажет о стареющем картежнике, который вместе с молодым коллегой путешествует по югу Америки.-Доп. информация: http://www.imdb.com/title/tt2349144/
http://www.kinopoisk.ru/film/707138/-Сэмпл: http://multi-up.com/1068442-Качество видео: WEB-DLRip
Формат видео: AVI
Видео: MPEG4, XviD, 720x300 (2.40:1), 23.976 fps, 1 671 Kbps (0.323 bit/pixel)
Аудио: AC-3, 48.0 KHz, 2 ch, 192 Kbps, CBR
MediaInfo
Общее
Полное имя : E:Прогулка по Миссисипи\Progulka po Mississippi 2015 WEB-DLRip.avi
Формат : AVI
Формат/Информация : Audio Video Interleave
Размер файла : 1,42 Гбайт
Продолжительность : 1 ч. 48 м.
Общий поток : 1872 Кбит/сек
Программа кодирования : VirtualDubMod 1.5.10.3 | (build 2550/release)
Библиотека кодирования : VirtualDubMod build 2550/release
Видео
Идентификатор : 0
Формат : MPEG-4 Visual
Профиль формата : Advanced Simple@L5
Параметр BVOP формата : 2
Параметр QPel формата : Нет
Параметр GMC формата : Без точки перехода
Параметр матрицы формата : Default (H.263)
Режим смешивания : Сжатый битовый поток
Идентификатор кодека : XVID
Идентификатор кодека/Подсказка : XviD
Продолжительность : 1 ч. 48 м.
Битрейт : 1671 Кбит/сек
Ширина : 720 пикселей
Высота : 300 пикселей
Соотношение сторон : 2,40:1
Частота кадров : 23,976 кадра/сек
Цветовое пространство : YUV
Субдискретизация насыщенности : 4:2:0
Битовая глубина : 8 бит
Тип развёртки : Прогрессивная
Метод сжатия : С потерями
Бит/(Пиксели*Кадры) : 0.323
Размер потока : 1,26 Гбайт (89%)
Библиотека кодирования : XviD 66
Аудио
Идентификатор : 1
Формат : AC-3
Формат/Информация : Audio Coding 3
Расширение режима : CM (complete main)
Идентификатор кодека : 2000
Продолжительность : 1 ч. 48 м.
Вид битрейта : Постоянный
Битрейт : 192 Кбит/сек
Каналы : 2 канала
Расположение каналов : Front: L R
Частота : 48,0 КГц
Битовая глубина : 16 бит
Метод сжатия : С потерями
Размер потока : 149 Мбайт (10%)
Выравнивание : Разделение по промежуткам
Продолжительность промежутка : 42 мс. (1,00 видеокадр)
Время предзагрузки промежутка : 500 мс.
Скриншоты
Скачать

Скачать торрент!

Как скачивать? · Что такое торрент? · Рейтинг и ограничения

Сайт не распространяет и не хранит электронные версии произведений, а лишь предоставляет доступ к создаваемому пользователями каталогу ссылок на торрент-файлы, которые содержат только списки хеш-сумм

[Профиль] [ЛС]
Показать сообщения:    
Ответить на тему

Текущее время: Сегодня 04:12

Часовой пояс: GMT + 4



Вы не можете начинать темы
Вы не можете отвечать на сообщения
Вы не можете редактировать свои сообщения
Вы не можете удалять свои сообщения
Вы не можете голосовать в опросах
Вы не можете прикреплять файлы к сообщениям
Вы не можете скачивать файлы