Ослеплена тобой / Strobe Edge / Sutorobo Ejji (Хироки Рюити / Ryuichi Hiroki) [2015, Япония, Романтика, школа, лайв-экшн, комедия, DVDRip-AVC] MVO

Ответить на тему
 
Автор Сообщение

user ®

Стаж: 13 лет

Сообщений: 15071

Пост Пост: #1 от 28-Сен-2015 13:27

[Цитировать]

Ослеплена тобой / Strobe Edge / Sutorobo Ejji
Страна: Япония
Жанр: Романтика, школа, лайв-экшн, комедия
Год выпуска: 2015
Продолжительность: 01:55:48
Перевод: Любительский (многоголосый закадровый) XDUB по переводу ФСГ "Big Boss"
Cубтитры: нет
Режиссер: Хироки Рюити / Ryuichi Hiroki
В ролях: Фукуси Сота, Аримура Касуми, Ямада Юки, Ириэ Дзинги, Куросима Юина, Сато Ариса
Описание: Пятнадцатилетняя Киносита Нинако никогда еще не была влюблена, пока не столкнулась в поезде с самым популярным мальчиком ее школы Ичиносэ Реном. Когда она становится ближе к Рену, она влюбляется в него, но должна научиться справляться со своими чувствами, ведь у Рена уже давно есть подружка...
Доп. информация: Роли озвучивали: Watanabe, Elrid, MassDam, Amikiri, Lady_Scarlet, Izanami
Сэмпл: http://multi-up.com/1068346
Качество видео: DVDRip-AVC
Формат видео: MKV
Видео: AVC, 856x480, 1600 kbps, 23.976 fps
Аудио: AC-3, 192 kbps, 48 kHZ, 2 ch
MediaInfo
Format: Matroska
Format version: Version 4 / Version 2
File size: 1.45 GiB
Duration: 1h 55mn
Overall bit rate: 1 787 Kbps
Encoded date: UTC 2015-09-26 15:27:41
Writing application: mkvmerge v6.4.1 ('Omega Point') built on Sep 16 2013 22:05:10
Writing library: libebml v1.3.0 + libmatroska v1.4.1
Format: AVC
Format/Info: Advanced Video Codec
Format profile: High@L3.0
Format settings, CABAC: No
Format settings, ReFrames: 1 frame
Codec ID: V_MPEG4/ISO/AVC
Duration: 1h 55mn
Bit rate: 1 600 Kbps
Width: 856 pixels
Height: 480 pixels
Display aspect ratio: 16:9
Frame rate mode: Constant
Frame rate: 23.976 fps
Color space: YUV
Chroma subsampling: 4:2:0
Bit depth: 8 bits
Scan type: Progressive
Bits/(Pixel*Frame): 0.162
Stream size: 1.26 GiB (87%)
Writing library: x264 core 116 r2019 9cc407d
Encoding settings: cabac=0 / ref=1 / deblock=1:0:0 / analyse=0x3:0x113 / me=hex / subme=7 / psy=1 / psy_rd=1.00:0.00 / mixed_ref=0 / me_range=16 / chroma_me=1 / trellis=1 / 8x8dct=1 / cqm=0 / deadzone=21,11 / fast_pskip=1 / chroma_qp_offset=-2 / threads=3 / sliced_threads=0 / nr=0 / decimate=1 / interlaced=0 / bluray_compat=0 / constrained_intra=0 / bframes=0 / weightp=2 / keyint=250 / keyint_min=23 / scenecut=40 / intra_refresh=0 / rc_lookahead=40 / rc=abr / mbtree=1 / bitrate=1600 / ratetol=1.0 / qcomp=0.60 / qpmin=0 / qpmax=69 / qpstep=4 / ip_ratio=1.40 / aq=1:1.00
Default: Yes
Forced: No
Format: AC-3
Format/Info: Audio Coding 3
Mode extension: CM (complete main)
Format settings, Endianness: Big
Codec ID: A_AC3
Duration: 1h 55mn
Bit rate mode: Constant
Bit rate: 192 Kbps
Channel(s): 2 channels
Channel positions: Front: L R
Sampling rate: 48.0 KHz
Bit depth: 16 bits
Compression mode: Lossy
Stream size: 159 MiB (11%)
Default: Yes
Forced: No
Скриншот c названием фильма Скриншоты
Скачать

Скачать торрент! Ослеплена тобой / Strobe Edge / Sutorobo Ejji (Хироки Рюити / Ryuichi Hiroki) [2015, Япония, Романтика, школа, лайв-экшн, комедия, DVDRip-AVC] MVO

Как скачивать? · Что такое торрент? · Рейтинг и ограничения

Сайт не распространяет и не хранит электронные версии произведений, а лишь предоставляет доступ к создаваемому пользователями каталогу ссылок на торрент-файлы, которые содержат только списки хеш-сумм

[Профиль] [ЛС]
Показать сообщения:    
Ответить на тему

Текущее время: Сегодня 11:13

Часовой пояс: GMT + 4



Вы не можете начинать темы
Вы не можете отвечать на сообщения
Вы не можете редактировать свои сообщения
Вы не можете удалять свои сообщения
Вы не можете голосовать в опросах
Вы не можете прикреплять файлы к сообщениям
Вы не можете скачивать файлы