Ложная клятва / Masterji (К. Рагхавендра Рао / K. Raghavendra Rao) [1985, Индия, Драма, комедия, LDRip] VO (Бахурани)

Ответить на тему
 
Автор Сообщение

user ®

Стаж: 12 лет

Сообщений: 15092

Пост Пост: #1 от 28-Сен-2015 01:06

[Цитировать]

Ложная клятва / Masterji
Страна: Индия
Жанр: Драма, комедия
Год выпуска: 1985
Продолжительность: 02:30:53
Перевод: Одноголосый закадровый Бахурани
Cубтитры: нет
Режиссер: К. Рагхавендра Рао / K. Raghavendra Rao
В ролях: Раджеш Кханна, Шридеви, Анита Радж, Кадер Кхан, Шакти Капур, Аруна Ирани, Асрани, Шьяма, Ом Шивпури
Описание: Дочь деревенского старосты Рада влюбилась в овдовевшего школьного учителя. Когда тот отверг ее предложение, Рада публично обвиняет его в домогательствах и деревенский панчаят заставляет учителя жениться на опозоренной девушке. Учитель соглашается, при условии, что Рада поклянется в совершенном грехе именем его маленького сына. Но упрямая красавица, не раздумывая, переступает через ребенка…
Доп. информация:
Озвучка: Бахурани (Спасибо!)
Материалы: larisa_k (Спасибо!)
Перевод субтитров: керелис (Спасибо!)
Сэмпл: http://multi-up.com/1068272
Качество видео: LDRip
Формат видео: AVI
Видео: DivX Codec 4.x, 560x420 (1.33:1), 23.976 fps, 1473 kbps avg
Аудио: MPEG Layer 3, 44.100 kHz, 2/0 (L,R) ch, 192.00 kbps
MediaInfo
General
Complete name : F:\Lozhnaja.kljatva.1985.VCDRip.DivX.BwTorrents.avi
Format : AVI
Format/Info : Audio Video Interleave
File size : 1.77 GiB
Duration : 2h 30mn
Overall bit rate : 1 675 Kbps
Writing library : VirtualDub build 35491/release
Video
ID : 0
Format : MPEG-4 Visual
Format profile : Simple@L1
Format settings, BVOP : No
Format settings, QPel : No
Format settings, GMC : No warppoints
Format settings, Matrix : Default (H.263)
Codec ID : DIVX
Codec ID/Info : Project Mayo
Codec ID/Hint : DivX 4
Duration : 2h 30mn
Bit rate : 1 474 Kbps
Width : 560 pixels
Height : 420 pixels
Display aspect ratio : 4/3
Frame rate : 23.976 fps
Resolution : 24 bits
Colorimetry : 4:2:0
Scan type : Progressive
Bits/(Pixel*Frame) : 0.261
Stream size : 1.55 GiB (88%)
Writing library : Lavc52.22.3
Audio
ID : 1
Format : MPEG Audio
Format version : Version 1
Format profile : Layer 3
Codec ID : 55
Codec ID/Hint : MP3
Duration : 2h 30mn
Bit rate mode : Constant
Bit rate : 192 Kbps
Channel(s) : 2 channels
Sampling rate : 44.1 KHz
Resolution : 16 bits
Stream size : 207 MiB (11%)
Alignment : Split accross interleaves
Interleave, duration : 42 ms (1.00 video frame)
Interleave, preload duration : 500 ms
Скриншоты
Скачать

Скачать торрент! Ложная клятва / Masterji (К. Рагхавендра Рао / K. Raghavendra Rao) [1985, Индия, Драма, комедия, LDRip] VO (Бахурани)

Как скачивать? · Что такое торрент? · Рейтинг и ограничения

Сайт не распространяет и не хранит электронные версии произведений, а лишь предоставляет доступ к создаваемому пользователями каталогу ссылок на торрент-файлы, которые содержат только списки хеш-сумм

[Профиль] [ЛС]
Показать сообщения:    
Ответить на тему

Текущее время: Сегодня 15:09

Часовой пояс: GMT + 4



Вы не можете начинать темы
Вы не можете отвечать на сообщения
Вы не можете редактировать свои сообщения
Вы не можете удалять свои сообщения
Вы не можете голосовать в опросах
Вы не можете прикреплять файлы к сообщениям
Вы не можете скачивать файлы