Огненные братья / Пламенные братья / The Flaming Brothers / Jiang hu long hu men / Gong woo lung foo moon (Танг Чо "Джо" Чунг / Tung Cho "Joe" Cheung) [1987, Гонконг, боевик, криминал, VHSRip] AVO (Кашкин)

Ответить на тему
 
Автор Сообщение

user ®

Стаж: 13 лет

Сообщений: 15071

Пост Пост: #1 от 27-Сен-2015 22:00

[Цитировать]

Огненные братья / Пламенные братья / Gong woo lung foo moon / The Flaming Brothers / Jiang hu long hu men
Страна: Гонконг
Жанр: боевик, криминал
Год выпуска: 1987
Продолжительность: 01:20:44
Перевод: Авторский (одноголосый закадровый) Александр Кашкин-Первомайский
Cубтитры: нет
Режиссер: Танг Чо "Джо" Чунг / Tung Cho "Joe" Cheung
В ролях: Чоу Юн-Фат, Алан Танг, Пат Ха, Лап Бан Чан, Филип Чан, Чок Чоу Чеунг, Эмили Чу, Норман Чу, Патрик Тс
Описание: Алан (Алан Танг) и Тими (Чоу Юн-Фат) сироты, которые пронесли дружбу через всю жизнь и стали названными братьями. Начиная свою "карьеру" с мелких воришек, к зрелому возрасту они достигли положения владельцев ночного клуба. Их отказ торговать в своем клубе наркотиками приводит к открытому конфликту с жестоким авторитетом Чао (Патрик Тс). Чтобы как-то разрядить обстановку Алан соглашается заняться продажей оружия и уезжает в Таиланд. В это время Тими встречает свою детскую любовь Кэрри (Пат Ха) и решает оставить преступный мир. В отношениях между Аланом и Тими возникает трещина, но братья всегда готовы прийти на выручку друг-другу, даже ценой собственной жизни...
Доп. информация: Оцифровка лицензионной VHS (личный архив) и получение VHSRip alenavova
Эксклюзив для ***. При размещении данного релиза на других сайтах ссылка на автора alenavova обязательна.

Релиз
Сэмпл: https://yadi.sk/i/v5CLuazXjL7iu
Качество видео: VHSRip
Формат видео: AVI
Видео: 704x528 (1.33:1), 25 fps, XviD build 50 ~2221 kbps avg, 0.24 bit/pixel
Аудио: 48 kHz, AC3 Dolby Digital, 2/0 (L,R) ch, ~192 kbps
MediaInfo
Огненные братья - The Flaming Brothers (by alenavova).avi
Format : AVI
Format/Info : Audio Video Interleave
File size : 1.37 GiB
Duration : 1h 20mn
Overall bit rate : 2 423 Kbps
Movie name : Огненные братья - The Flaming Brothers (by alenavova)
Director : by alenavova
Writing application : VirtualDubMod 1.5.10.3 | www.virtualdub-fr.org || (build 2550/release)
Copyright : Edich2
Comment : ***
Video
ID : 0
Format : MPEG-4 Visual
Format profile : Advanced Simple@L5
Format settings, BVOP : 1
Format settings, QPel : No
Format settings, GMC : No warppoints
Format settings, Matrix : Default (MPEG)
Codec ID : XVID
Codec ID/Hint : XviD
Duration : 1h 20mn
Bit rate : 2 222 Kbps
Width : 704 pixels
Height : 528 pixels
Display aspect ratio : 4:3
Frame rate : 25.000 fps
Color space : YUV
Chroma subsampling : 4:2:0
Bit depth : 8 bits
Scan type : Progressive
Compression mode : Lossy
Bits/(Pixel*Frame) : 0.239
Stream size : 1.25 GiB (92%)
Writing library : XviD 1.2.1 (UTC 2008-12-04)
Audio
ID : 1
Format : AC-3
Format/Info : Audio Coding 3
Mode extension : CM (complete main)
Format settings, Endianness : Big
Codec ID : 2000
Duration : 1h 20mn
Bit rate mode : Constant
Bit rate : 192 Kbps
Channel(s) : 2 channels
Channel positions : Front: L R
Sampling rate : 48.0 KHz
Bit depth : 16 bits
Compression mode : Lossy
Stream size : 111 MiB (8%)
Alignment : Split accross interleaves
Interleave, duration : 40 ms (1.00 video frame)
Interleave, preload duration : 500 ms
Скриншоты
Скачать

Скачать торрент! Огненные братья / Пламенные братья / The Flaming Brothers / Jiang hu long hu men / Gong woo lung foo moon (Танг Чо "Джо" Чунг / Tung Cho "Joe" Cheung) [1987, Гонконг, боевик, криминал, VHSRip] AVO (Кашкин)

Как скачивать? · Что такое торрент? · Рейтинг и ограничения

Сайт не распространяет и не хранит электронные версии произведений, а лишь предоставляет доступ к создаваемому пользователями каталогу ссылок на торрент-файлы, которые содержат только списки хеш-сумм

[Профиль] [ЛС]
Показать сообщения:    
Ответить на тему

Текущее время: Сегодня 11:37

Часовой пояс: GMT + 4



Вы не можете начинать темы
Вы не можете отвечать на сообщения
Вы не можете редактировать свои сообщения
Вы не можете удалять свои сообщения
Вы не можете голосовать в опросах
Вы не можете прикреплять файлы к сообщениям
Вы не можете скачивать файлы