Пять пальцев / Five Fingers (Лоуренс Малкин / Laurence Malkin) [2006, США, триллер, драма, WEB-DL 720p] DVO + Sub Rus, Eng + Original Eng

Ответить на тему
 
Автор Сообщение

user ®

Стаж: 7 лет 7 месяцев

Сообщений: 20008

Пост Пост: #1 от 27-Сен-2015 22:00

[Цитировать]

Пять пальцев / Five Fingers
Страна: США
Студия: 24fps Productions, Cinema Gypsy Productions, Element Films
Жанр: триллер, драма
Год выпуска: 2006
Продолжительность: 01:26:58
Перевод: Профессиональный (двухголосый закадровый)
Cубтитры: русские, английские
Оригинальная аудиодорожка: английский
Режиссер: Лоуренс Малкин / Laurence Malkin
В ролях: Райан Филипп, Лоренс Фишбёрн, Мими Феррер, Турия Хауд, Иза Хес, Энтони Камерлинг, Колм Мини, Anton Sinke, Саид Тагмауи, Джина Торрес и др.
Описание: Голландец-идеалист Мартин приезжает в Марокко, чтобы накормить голодающих и помочь бедным детям. Во время путешествия его похищает группа террористов. Его гида, Гэвина, казнят прямо на его глазах. Под угрозой смерти, молодой человек участвует в умственном шахматном поединке с главным террористом Ахметом, пытаясь понять истинную цель своего мучителя и избежать ужасной судьбы. Каждая игра стоит ему одного пальца…
II Сэмпл II IMDB II
Доп. информация:
За двухголосый перевод спасибо Олдбой
Тип релиза: WEB-DL 720p
Контейнер: MKV
Видео: AVC / 1280x718 / 16:9 / 23.976fps / Bit rate 4004bps
Аудио 1: AC3 / 48.0 KHz / 6ch. / 448kbps / rus / dvo
Аудио 2: AC3 / 48.0 KHz / 6ch. / 384kbps / eng
Формат субтитров: softsub (SRT)
MediaInfo
Общее
Уникальный идентификатор : 227065801518000525278991448468165612584 (0xAAD3485BAEFFE032A74828EC02D5D428)
Полное имя : H:\!_Torrent\Five.Fingers.2006.WEB-DL.720p_by_vedigo.mkv
Формат : Matroska
Версия формата : Version 4 / Version 2
Размер файла : 3,00 Гбайт
Продолжительность : 1 ч. 26 м.
Общий поток : 4934 Кбит/сек
Название фильма : Five.Fingers.2006.WEB-DL.720p_by_vedigo
Дата кодирования : UTC 2015-09-27 02:28:53
Программа кодирования : mkvmerge v8.4.0 ('A better way to fly') 64bit
Библиотека кодирования : libebml v1.3.1 + libmatroska v1.4.2
DURATION : 01:24:44.502000000
NUMBER_OF_FRAMES : 994
NUMBER_OF_BYTES : 53471
_STATISTICS_WRITING_APP : mkvmerge v8.4.0 ('A better way to fly') 64bit
_STATISTICS_WRITING_DATE_UTC : 2015-09-27 02:28:53
_STATISTICS_TAGS : BPS DURATION NUMBER_OF_FRAMES NUMBER_OF_BYTES
Видео
Идентификатор : 1
Формат : AVC
Формат/Информация : Advanced Video Codec
Профиль формата : High@L3.1
Параметр CABAC формата : Нет
Параметр ReFrames формата : 2 кадра
Идентификатор кодека : V_MPEG4/ISO/AVC
Продолжительность : 1 ч. 26 м.
Битрейт : 4004 Кбит/сек
Ширина : 1280 пикселей
Высота : 718 пикселей
Соотношение сторон : 16:9
Режим частоты кадров : Постоянный
Частота кадров : 23,976 кадра/сек
Цветовое пространство : YUV
Субдискретизация насыщенности : 4:2:0
Битовая глубина : 8 бит
Тип развёртки : Прогрессивная
Бит/(Пиксели*Кадры) : 0.182
Размер потока : 2,43 Гбайт (81%)
Заголовок : Five.Fingers.2006.WEB-DL.720p_by_vedigo
Default : Да
Forced : Нет
Цветовой диапазон : Limited
Основные цвета : BT.709
Характеристики трансфера : BT.709
Коэффициенты матрицы : BT.709
Аудио #1
Идентификатор : 2
Формат : AC-3
Формат/Информация : Audio Coding 3
Расширение режима : CM (complete main)
Параметр Endianness формата : Big
Идентификатор кодека : A_AC3
Продолжительность : 1 ч. 26 м.
Вид битрейта : Постоянный
Битрейт : 448 Кбит/сек
Каналы : 6 каналов
Расположение каналов : Front: L C R, Side: L R, LFE
Частота : 48,0 КГц
Метод сжатия : С потерями
Размер потока : 279 Мбайт (9%)
Заголовок : DVO
Язык : Russian
Default : Да
Forced : Нет
Аудио #2
Идентификатор : 3
Формат : AC-3
Формат/Информация : Audio Coding 3
Расширение режима : CM (complete main)
Параметр Endianness формата : Big
Идентификатор кодека : A_AC3
Продолжительность : 1 ч. 26 м.
Вид битрейта : Постоянный
Битрейт : 384 Кбит/сек
Каналы : 6 каналов
Расположение каналов : Front: L C R, Side: L R, LFE
Частота : 48,0 КГц
Метод сжатия : С потерями
Размер потока : 239 Мбайт (8%)
Заголовок : original
Язык : English
Default : Нет
Forced : Нет
Текст #1
Идентификатор : 4
Формат : UTF-8
Идентификатор кодека : S_TEXT/UTF8
Идентификатор кодека/Информация : UTF-8 Plain Text
Заголовок : subtitle rus
Язык : Russian
Default : Нет
Forced : Нет
Текст #2
Идентификатор : 5
Формат : UTF-8
Идентификатор кодека : S_TEXT/UTF8
Идентификатор кодека/Информация : UTF-8 Plain Text
Заголовок : subtitle eng
Язык : English
Default : Нет
Forced : Нет
Меню
00:00:00.000 : en:Chapter 1
00:08:02.000 : en:Chapter 2
00:15:08.000 : en:Chapter 3
00:30:11.000 : en:Chapter 4
00:42:14.000 : en:Chapter 5
00:55:29.000 : en:Chapter 6
01:07:37.000 : en:Chapter 7
01:20:08.000 : en:Chapter 8
01:22:32.000 : en:Chapter 9
Скриншоты
Скачать

Скачать торрент!

Как скачивать? · Что такое торрент? · Рейтинг и ограничения

Сайт не распространяет и не хранит электронные версии произведений, а лишь предоставляет доступ к создаваемому пользователями каталогу ссылок на торрент-файлы, которые содержат только списки хеш-сумм

[Профиль] [ЛС]
Показать сообщения:    
Ответить на тему

Текущее время: Сегодня 17:43

Часовой пояс: GMT + 4



Вы не можете начинать темы
Вы не можете отвечать на сообщения
Вы не можете редактировать свои сообщения
Вы не можете удалять свои сообщения
Вы не можете голосовать в опросах
Вы не можете прикреплять файлы к сообщениям
Вы не можете скачивать файлы