Любовная ситуация – это непросто / Situation amoureuse: C\'est complique (Родольф Лога, Маню Пайе / Rodolphe Lauga, Manu Payet) [2014, Франция, мелодрама, комедия, HDTV 1080i] MVO (SDI-Media)

Ответить на тему
 
Автор Сообщение

user ®

Стаж: 7 лет 7 месяцев

Сообщений: 20008

Пост Пост: #1 от 27-Сен-2015 22:00

[Цитировать]

Любовная ситуация – это непросто / Situation amoureuse: C'est compliqué- Страна: США
Студия: LGM Productions, StudioCanal, D8 Films...
Жанр: мелодрама, комедия
Год выпуска: 2014
Продолжительность: 01:34:18-Перевод: Профессиональный (многоголосый закадровый) SDI-Media
Cубтитры: нет
Оригинальная аудиодорожка: нет-Режиссер: Родольф Лога, Маню Пайе / Rodolphe Lauga, Manu Payet
В ролях: Маню Пайе, Анаис Демустье, Эммануэль Шрики, Филипп Дюкен, Жан Франсуа Кэйри, Жан-Шарль Клише, Ромейн Леви, Александр Стайгер...- | Релиз: -Описание: 30-летний Бен готовится к скорой свадьбе со своей невестой Джульеттой. Однако неожиданное возвращение в Париж его бывшей одноклассницы Ванессы спутывает парню все планы. В юности Бен был влюблен в девушку, но та совершенно игнорировала его. Теперь же ситуация изменилась, и Ванесса совсем не против близких отношений с ним. Решится ли Бен оставить невесту накануне свадьбы или останется верен ей?..-Семпл: http://sendfile.su/1158715-Тип релиза: HDTV 1080i
Контейнер: TS
Видео: 1920x1080 (16:9), 25.000 fps, AVC, ~8061 Kbps, 0.155 bits/pixel
Аудио: Русский, 48.0 KHz, AC3, 2 ch, 192 Kbps
MediaInfo
GeneralID : 1 (0x1)Complete name : Situation amoureuse - C'est complique 2014 TV1000PremiumHD 1080i MVO SDI-Media.tsFormat : MPEG-TSFile size : 5.72 GiBDuration : 1h 34mnOverall bit rate mode : VariableOverall bit rate : 8 683 KbpsMaximum Overall bit rate : 35.5 Mbps
VideoID : 4113 (0x1011)Menu ID : 1 (0x1)Format : AVCFormat/Info : Advanced Video CodecFormat profile : Main@L4Format settings, CABAC : YesFormat settings, ReFrames : 4 framesCodec ID : 27Duration : 1h 34mnBit rate : 8 060 KbpsWidth : 1 920 pixelsHeight : 1 080 pixelsDisplay aspect ratio : 16:9Frame rate : 25.000 fpsStandard : ComponentColor space : YUVChroma subsampling : 4:2:0Bit depth : 8 bitsScan type : InterlacedScan order : Top Field FirstBits/(Pixel*Frame) : 0.155Stream size : 5.31 GiB (93%)Color range : LimitedColor primaries : BT.709Transfer characteristics : BT.709Matrix coefficients : BT.709
AudioID : 4352 (0x1100)Menu ID : 1 (0x1)Format : AC-3Format/Info : Audio Coding 3Mode extension : CM (complete main)Format settings, Endianness : BigCodec ID : 129Duration : 1h 34mnBit rate mode : ConstantBit rate : 192 KbpsChannel(s) : 2 channelsChannel positions : Front: L RSampling rate : 48.0 KHzCompression mode : LossyStream size : 130 MiB (2%)Language : Russian
Скриншоты
Скачать

Скачать торрент!

Как скачивать? · Что такое торрент? · Рейтинг и ограничения

Сайт не распространяет и не хранит электронные версии произведений, а лишь предоставляет доступ к создаваемому пользователями каталогу ссылок на торрент-файлы, которые содержат только списки хеш-сумм

[Профиль] [ЛС]
Показать сообщения:    
Ответить на тему

Текущее время: Сегодня 18:16

Часовой пояс: GMT + 4



Вы не можете начинать темы
Вы не можете отвечать на сообщения
Вы не можете редактировать свои сообщения
Вы не можете удалять свои сообщения
Вы не можете голосовать в опросах
Вы не можете прикреплять файлы к сообщениям
Вы не можете скачивать файлы