Проклятый путь / Road to Perdition (Сэм Мендес / Sam Mendes) [2002, США, триллер, драма, криминал, HDTV 1080i] [Open Matte] Dub

Ответить на тему
 
Автор Сообщение

user ®

Стаж: 7 лет 7 месяцев

Сообщений: 20008

Пост Пост: #1 от 27-Сен-2015 18:54

[Цитировать]

Проклятый путь / Road to Perdition / Open Matte
Страна: США
Жанр: триллер, драма, криминал
Год выпуска: 2002
Продолжительность: 01:48:52
Перевод: Профессиональный (дублированный)
Cубтитры: нет
Оригинальная аудиодорожка: нет
Режиссер: Сэм Мендес / Sam Mendes
В ролях: Том Хэнкс, Тайлер Хёхлин, Дэниэл Крэйг, Сайэрэн Хайндз, Джуд Лоу, Роб Макси, Пол Ньюман, Лайэм Эйкен, Дженнифер Джейсон Ли , Крэйг Спидл, Иэн Бэрфорд, Стивен П. Данн, Пол Тернер, Кэтлин Кин, Брендан МакКинни, Джеки Моран, Киран О'Хэйр, Джон М. Уильямс, Николас Кэйд, Дэвид Дарлоу, Дилан Бэйкер, Джон Сьеррос, Джон Сэттлер, Майкл Брокмэн, Джон Джадд, Кристиан Столт, Джек Каллахан, Морин Галлахер, Кевин Чэмберлин, Хуанита Уилсон, Лэнс Бэйкер, Роберт Джонс, Лара Филлипс, Хэрри Гренер, Эд Кросс, Джеймс Грин, Джеймс Керри, Мартин Мерфи
Описание: Чикаго времен Великой депрессии. Два сына - Майкл Салливан-младший и Коннор Руни отчаянно стараются завоевать расположение своих отцов - Майкла Салливана-старшего, гангстера из ирландского клана, и Джона Руни, босса Салливана-старшего, заменившего ему отца. Ревность и соперничество толкают их всех на гибельный путь.
Семья Салливана-старшего становится жертвой страшной «профессии» главы семейства. Погибают его любимая жена и младший сын Питер. Месть и трагедия становятся постоянными спутниками Майкла и его оставшегося в живых сына…
Доп. информация: Запись с канала Первый HD. HDTV имеет большее наполнение кадра чем BD http://screenshotcomparison.com/comparison/143048
Сэмпл: http://multi-up.com/1068143
Тип релиза: HDTV 1080i
Контейнер: TS
Видео: AVC, 1920x1080 (16:9), 25.000 fps, 11.7 Mbps (0.226 bit/pixel)
Аудио: MP2, 48.0 KHz, 2 ch, 192 Kbps, CBR (Russian)
MediaInfo
бщее
Идентификатор : 3 (0x3)
Полное имя : K:\Проклятый путь.ts
Формат : MPEG-TS
Размер файла : 9,53 Гбайт
Продолжительность : 1 ч. 48 м.
Режим общего битрейта : Переменный
Общий поток : 12,5 Мбит/сек
Видео
Идентификатор : 2141 (0x85D)
Идентификатор меню : 21004 (0x520C)
Формат : AVC
Формат/Информация : Advanced Video Codec
Профиль формата : Main@L4
Параметр CABAC формата : Да
Параметр ReFrames формата : 3 кадра
Идентификатор кодека : 27
Продолжительность : 1 ч. 48 м.
Битрейт : 11,7 Мбит/сек
Ширина : 1920 пикселей
Высота : 1080 пикселей
Соотношение сторон : 16:9
Частота кадров : 25,000 кадров/сек
Стандарт вещания : Component
Цветовое пространство : YUV
Субдискретизация насыщенности : 4:2:0
Битовая глубина : 8 бит
Тип развёртки : Чересстрочная
Порядок развёртки : Верхнее поле первое
Бит/(Пиксели*Кадры) : 0.226
Размер потока : 8,91 Гбайт (94%)
Цветовой диапазон : Limited
Основные цвета : BT.709
Характеристики трансфера : BT.709
Коэффициенты матрицы : BT.709
Аудио
Идентификатор : 2142 (0x85E)
Идентификатор меню : 21004 (0x520C)
Формат : MPEG Audio
Версия формата : Version 1
Профиль формата : Layer 2
Идентификатор кодека : 4
Продолжительность : 1 ч. 48 м.
Вид битрейта : Постоянный
Битрейт : 192 Кбит/сек
Каналы : 2 канала
Частота : 48,0 КГц
Метод сжатия : С потерями
Задержка видео : -12 мс.
Размер потока : 150 Мбайт (2%)
Язык : Russian
Скриншоты
Скачать

Скачать торрент!

Как скачивать? · Что такое торрент? · Рейтинг и ограничения

Сайт не распространяет и не хранит электронные версии произведений, а лишь предоставляет доступ к создаваемому пользователями каталогу ссылок на торрент-файлы, которые содержат только списки хеш-сумм

[Профиль] [ЛС]
Показать сообщения:    
Ответить на тему

Текущее время: Сегодня 10:06

Часовой пояс: GMT + 4



Вы не можете начинать темы
Вы не можете отвечать на сообщения
Вы не можете редактировать свои сообщения
Вы не можете удалять свои сообщения
Вы не можете голосовать в опросах
Вы не можете прикреплять файлы к сообщениям
Вы не можете скачивать файлы