22 пули: Бессмертный / 22 Bullets / L\'immortel (Ришар Берри / Richard Berry) [2010, Франция, боевик, драма, криминал, BDRip 720p] 2x Dub + MVO + MVO (Ukr) + Sub Rus, Eng + Original Fre

Ответить на тему
 
Автор Сообщение

user ®

Стаж: 7 лет 7 месяцев

Сообщений: 20008

Пост Пост: #1 от 27-Сен-2015 18:54

[Цитировать]

22 пули: Бессмертный / 22 Bullets / L'immortel
Страна: Франция
Студия: EuropaCorp, TF1 Films Production, Marie Coline Films
Жанр: боевик, драма, криминал
Год выпуска: 2010
Продолжительность: 01:56:58
Перевод 1: Профессиональный (дублированный) R5
Перевод 2: Профессиональный (дублированный) RenTV
Перевод 3: Профессиональный (многоголосый закадровый) ОРТ
Cубтитры: русские, английские
Оригинальная аудиодорожка: французский
Режиссер: Ришар Берри / Richard Berry
В ролях: Жан Рено, Кад Мерад, Жан-Пьер Дарруссен, Марина Фоис, Джои Старр, Ришар Берри, Венантино Венантини, Клоди Жансак, Жозефин Берри, Макс Бесетт де Малглейв
Описание: Шарль Матей – один из крестных отцов Марселя. Он решает отойти от дел и жить на покое, ведь ему немало лет, а за спиной слишком бурная жизнь. Но компаньоны против такого поворота событий. На него совершают жестокое покушение, не оставляя ему ни одного шанса.
Расстрелянного коллегами в упор, Шарля доставляют в больницу и извлекают из его тела 22 пули… Но каким-то чудом он остается жив. Теперь он жаждет отомстить своим некогда друзьям. И его месть будет не менее кровава и безжалостна.- by Skazhutin-Сэмпл: http://sendfile.su/1158169
Тип релиза: BDRip 720p [SbR]
Контейнер: MKV
Видео: h.264, 1280x546, 24.000 fps, 6444 kbps
Аудио #1: Russian: AC3 5.1, 48 kHz, 384 kbps avg |Дубляж, R5|
Аудио #2: Russian: AC3 2.0, 48 kHz, 192 kbps avg |Дубляж, RenTV|
Аудио #3: Russian: AC3 2.0, 48 kHz, 192 kbps avg |Многоголосый закадровый, ОРТ|
Аудио #4: Ukrainian: AC3 5.1, 48 kHz, 384 kbps avg |Многоголосый закадровый, R5|
Аудио #3: French: DTS 5.1, 48 kHz, 1536 kbps avg |Оригинал|
Формат субтитров: softsub (SRT)
MediaInfo
Complete name : E:\L'immortel.2010.720p.BluRay.3xRus.Ukr.Fre.HDCLUB-SbR.mkv
Format : Matroska
Format version : Version 4 / Version 2
File size : 7.59 GiB
Duration : 1h 57mn
Overall bit rate : 9 290 Kbps
Movie name : L'immortel (2010) - Release for HDCLUB by SbR
Encoded date : UTC 2015-03-28 06:48:40
Writing application : mkvmerge v7.7.0 ('Six Voices') 64bit built on Feb 28 2015 23:39:33
Writing library : libebml v1.3.1 + libmatroska v1.4.2
Attachements : cover.jpg / xlog.txt
Video
ID : 1
Format : AVC
Format/Info : Advanced Video Codec
Format profile : High@L4.1
Format settings, CABAC : Yes
Format settings, ReFrames : 11 frames
Codec ID : V_MPEG4/ISO/AVC
Duration : 1h 57mn
Bit rate : 6 444 Kbps
Width : 1 280 pixels
Height : 546 pixels
Display aspect ratio : 2.35:1
Frame rate mode : Constant
Frame rate : 24.000 fps
Color space : YUV
Chroma subsampling : 4:2:0
Bit depth : 8 bits
Scan type : Progressive
Bits/(Pixel*Frame) : 0.384
Stream size : 5.27 GiB (69%)
Title : Release for HDCLUB
Writing library : x264 core 146 r2538kMod 121396c
Encoding settings : cabac=1 / ref=11 / deblock=1:-2:-2 / analyse=0x3:0x133 / me=umh / subme=11 / psy=1 / fade_compensate=0.00 / psy_rd=1.00:0.00 / mixed_ref=1 / me_range=32 / chroma_me=1 / trellis=2 / 8x8dct=1 / cqm=0 / deadzone=21,11 / fast_pskip=1 / chroma_qp_offset=-2 / threads=12 / lookahead_threads=2 / sliced_threads=0 / nr=0 / decimate=1 / interlaced=0 / bluray_compat=0 / constrained_intra=0 / fgo=0 / bframes=8 / b_pyramid=2 / b_adapt=2 / b_bias=0 / direct=1 / weightb=1 / open_gop=0 / weightp=2 / keyint=250 / keyint_min=24 / scenecut=40 / intra_refresh=0 / rc_lookahead=60 / rc=crf / mbtree=0 / crf=16.5000 / qcomp=0.70 / qpmin=0 / qpmax=69 / qpstep=4 / vbv_maxrate=62500 / vbv_bufsize=78125 / crf_max=0.0 / nal_hrd=none / filler=0 / ip_ratio=1.40 / pb_ratio=1.30 / aq=1:0.80
Language : French
Default : Yes
Forced : No
Color range : Limited
Color primaries : BT.709
Transfer characteristics : BT.709
Matrix coefficients : BT.709
Audio #1
ID : 2
Format : AC-3
Format/Info : Audio Coding 3
Mode extension : CM (complete main)
Format settings, Endianness : Big
Codec ID : A_AC3
Duration : 1h 57mn
Bit rate mode : Constant
Bit rate : 384 Kbps
Channel(s) : 6 channels
Channel positions : Front: L C R, Side: L R, LFE
Sampling rate : 48.0 KHz
Compression mode : Lossy
Stream size : 321 MiB (4%)
Title : Dub, R5
Language : Russian
Default : Yes
Forced : No
Audio #2
ID : 3
Format : AC-3
Format/Info : Audio Coding 3
Mode extension : CM (complete main)
Format settings, Endianness : Big
Codec ID : A_AC3
Duration : 1h 57mn
Bit rate mode : Constant
Bit rate : 192 Kbps
Channel(s) : 2 channels
Channel positions : Front: L R
Sampling rate : 48.0 KHz
Compression mode : Lossy
Stream size : 161 MiB (2%)
Title : Dub, RenTV
Language : Russian
Default : No
Forced : No
Audio #3
ID : 4
Format : AC-3
Format/Info : Audio Coding 3
Mode extension : CM (complete main)
Format settings, Endianness : Big
Codec ID : A_AC3
Duration : 1h 57mn
Bit rate mode : Constant
Bit rate : 192 Kbps
Channel(s) : 2 channels
Channel positions : Front: L R
Sampling rate : 48.0 KHz
Compression mode : Lossy
Stream size : 161 MiB (2%)
Title : MVO, ОРТ
Language : Russian
Default : No
Forced : No
Audio #4
ID : 5
Format : AC-3
Format/Info : Audio Coding 3
Mode extension : CM (complete main)
Format settings, Endianness : Big
Codec ID : A_AC3
Duration : 1h 57mn
Bit rate mode : Constant
Bit rate : 384 Kbps
Channel(s) : 6 channels
Channel positions : Front: L C R, Side: L R, LFE
Sampling rate : 48.0 KHz
Compression mode : Lossy
Stream size : 321 MiB (4%)
Title : MVO, R5
Language : Ukrainian
Default : No
Forced : No
Audio #5
ID : 6
Format : DTS
Format/Info : Digital Theater Systems
Mode : 16
Format settings, Endianness : Big
Codec ID : A_DTS
Duration : 1h 57mn
Bit rate mode : Constant
Bit rate : 1 509 Kbps
Channel(s) : 6 channels
Channel positions : Front: L C R, Side: L R, LFE
Sampling rate : 48.0 KHz
Bit depth : 24 bits
Compression mode : Lossy
Stream size : 1.23 GiB (16%)
Language : French
Default : No
Forced : No
Text #1
ID : 7
Format : UTF-8
Codec ID : S_TEXT/UTF8
Codec ID/Info : UTF-8 Plain Text
Language : Russian
Default : No
Forced : No
Text #2
ID : 8
Format : UTF-8
Codec ID : S_TEXT/UTF8
Codec ID/Info : UTF-8 Plain Text
Language : English
Default : No
Forced : No
Menu
00:00:00.000 : en:Chapter 1
00:13:23.625 : en:Chapter 2
00:23:47.625 : en:Chapter 3
00:30:23.833 : en:Chapter 4
00:41:26.708 : en:Chapter 5
00:52:37.500 : en:Chapter 6
01:00:03.833 : en:Chapter 7
01:09:16.250 : en:Chapter 8
01:19:15.125 : en:Chapter 9
01:26:05.250 : en:Chapter 10
01:36:44.125 : en:Chapter 11
01:46:47.000 : en:Chapter 12
Source vs Encode vs Old rip Скриншоты
Скачать

Скачать торрент!

Как скачивать? · Что такое торрент? · Рейтинг и ограничения

Сайт не распространяет и не хранит электронные версии произведений, а лишь предоставляет доступ к создаваемому пользователями каталогу ссылок на торрент-файлы, которые содержат только списки хеш-сумм

[Профиль] [ЛС]
Показать сообщения:    
Ответить на тему

Текущее время: Сегодня 00:08

Часовой пояс: GMT + 4



Вы не можете начинать темы
Вы не можете отвечать на сообщения
Вы не можете редактировать свои сообщения
Вы не можете удалять свои сообщения
Вы не можете голосовать в опросах
Вы не можете прикреплять файлы к сообщениям
Вы не можете скачивать файлы