Хищные воды / Black Water (Дэвид Нерлич / David Nerlich, Эндрю Трауки / Andrew Traucki) [2007, Австралия, ужасы, WEB-DL 720p] MVO + AVO + Sub Rus, Eng + Original Eng

Ответить на тему
 
Автор Сообщение

user ®

Стаж: 7 лет 7 месяцев

Сообщений: 20008

Пост Пост: #1 от 27-Сен-2015 18:54

[Цитировать]

Хищные воды / Black Water
Страна: Австралия
Студия: Australian Film Commission, The, Territorial Film Developments (TFD), ProdigyMovies
Жанр: ужасы
Год выпуска: 2007
Продолжительность: 01:29:17
Перевод 1: Профессиональный (многоголосый закадровый)
Перевод 1: Авторский (одноголосый закадровый) Андрей Дольский
Cубтитры: русские, английские
Оригинальная аудиодорожка: английский
Режиссеры: Дэвид Нерлич / David Nerlich, Эндрю Трауки / Andrew Traucki
В ролях: Диана Гленн / Diana Glenn, Мейв Дермоди / Maeve Dermody, Энди Родореда / Andy Rodoreda, Бен Оксенболд / Ben Oxenbould, Фиона Пресс / Fiona Press и др.
Описание: Грейс, Адам и Ли решают провести выходные на рыбалке на живописной реке, среди непроходимых джунглей. На месте они нанимают проводника - лучшего знатока окрестностей.
Отличная погода, красивые места, прекрасный клев - все указывает на то, что путешествие будет легким и увлекательным. Но даже такой профессионал, как их проводник, не подозревает, какая опасность таится в тихой и на вид безопасной заводи…
II Сэмпл II IMDB II
Доп. информация:
За многоголоску спасибо 77nazzzik77
Тип релиза: WEB-DL 720p
Контейнер: MKV
Видео: AVC / 1280x718 / 16:9 / 23.976fps / Bit rate 3927Kbps
Аудио 1: AC3 / 48.0 KHz / 6ch. / 384kbps / rus / mvo
Аудио 2: AC3 / 48.0 KHz / 2ch. / 192kbps / rus / avo / Андрей Дольский
Аудио 3: AC3 / 48.0 KHz / 6ch. / 384kbps / eng
Формат субтитров: softsub (SRT)
MediaInfo
Общее
Уникальный идентификатор : 249881253159330299059767579613898336891 (0xBBFD60F90A5D04CA829A03BB0A29EA7B)
Полное имя : H:\!_Torrent\Black.Water.2007.WEB-DL.720p.by_vedigo.mkv
Формат : Matroska
Версия формата : Version 4 / Version 2
Размер файла : 3,11 Гбайт
Продолжительность : 1 ч. 29 м.
Общий поток : 4982 Кбит/сек
Название фильма : Black.Water.2007.WEB-DL.720p.by_vedigo
Дата кодирования : UTC 2015-09-25 22:49:38
Программа кодирования : mkvmerge v8.4.0 ('A better way to fly') 64bit
Библиотека кодирования : libebml v1.3.1 + libmatroska v1.4.2
DURATION : 01:29:17.824000000
NUMBER_OF_FRAMES : 167432
NUMBER_OF_BYTES : 128587776
_STATISTICS_WRITING_APP : mkvmerge v8.4.0 ('A better way to fly') 64bit
_STATISTICS_WRITING_DATE_UTC : 2015-09-25 22:49:38
_STATISTICS_TAGS : BPS DURATION NUMBER_OF_FRAMES NUMBER_OF_BYTES
Видео
Идентификатор : 1
Формат : AVC
Формат/Информация : Advanced Video Codec
Профиль формата : High@L3.1
Параметр CABAC формата : Нет
Параметр ReFrames формата : 2 кадра
Идентификатор кодека : V_MPEG4/ISO/AVC
Продолжительность : 1 ч. 29 м.
Битрейт : 3923 Кбит/сек
Ширина : 1280 пикселей
Высота : 718 пикселей
Соотношение сторон : 16:9
Режим частоты кадров : Постоянный
Частота кадров : 23,976 кадра/сек
Цветовое пространство : YUV
Субдискретизация насыщенности : 4:2:0
Битовая глубина : 8 бит
Тип развёртки : Прогрессивная
Бит/(Пиксели*Кадры) : 0.178
Размер потока : 2,45 Гбайт (79%)
Заголовок : Black.Water.2007.WEB-DL.720p.by_vedigo
Default : Да
Forced : Нет
Цветовой диапазон : Limited
Основные цвета : BT.709
Характеристики трансфера : BT.709
Коэффициенты матрицы : BT.709
Аудио #1
Идентификатор : 2
Формат : AC-3
Формат/Информация : Audio Coding 3
Расширение режима : CM (complete main)
Параметр Endianness формата : Big
Идентификатор кодека : A_AC3
Продолжительность : 1 ч. 29 м.
Вид битрейта : Постоянный
Битрейт : 384 Кбит/сек
Каналы : 6 каналов
Расположение каналов : Front: L C R, Side: L R, LFE
Частота : 48,0 КГц
Метод сжатия : С потерями
Размер потока : 245 Мбайт (8%)
Заголовок : MVO
Язык : Russian
Default : Да
Forced : Нет
Аудио #2
Идентификатор : 3
Формат : AC-3
Формат/Информация : Audio Coding 3
Расширение режима : CM (complete main)
Параметр Endianness формата : Big
Идентификатор кодека : A_AC3
Продолжительность : 1 ч. 29 м.
Вид битрейта : Постоянный
Битрейт : 192 Кбит/сек
Каналы : 2 канала
Расположение каналов : Front: L R
Частота : 48,0 КГц
Метод сжатия : С потерями
Размер потока : 123 Мбайт (4%)
Заголовок : AVO @ Андрей Дольский
Язык : Russian
Default : Нет
Forced : Нет
Аудио #3
Идентификатор : 4
Формат : AC-3
Формат/Информация : Audio Coding 3
Расширение режима : CM (complete main)
Параметр Endianness формата : Big
Идентификатор кодека : A_AC3
Продолжительность : 1 ч. 29 м.
Вид битрейта : Постоянный
Битрейт : 384 Кбит/сек
Каналы : 6 каналов
Расположение каналов : Front: L C R, Side: L R, LFE
Частота : 48,0 КГц
Метод сжатия : С потерями
Размер потока : 245 Мбайт (8%)
Заголовок : original
Язык : English
Default : Нет
Forced : Нет
Текст #1
Идентификатор : 5
Формат : UTF-8
Идентификатор кодека : S_TEXT/UTF8
Идентификатор кодека/Информация : UTF-8 Plain Text
Заголовок : subtitle rus
Язык : Russian
Default : Нет
Forced : Нет
Текст #2
Идентификатор : 6
Формат : UTF-8
Идентификатор кодека : S_TEXT/UTF8
Идентификатор кодека/Информация : UTF-8 Plain Text
Заголовок : subtitle eng
Язык : English
Default : Нет
Forced : Нет
Скриншоты
Скачать

Скачать торрент!

Как скачивать? · Что такое торрент? · Рейтинг и ограничения

Сайт не распространяет и не хранит электронные версии произведений, а лишь предоставляет доступ к создаваемому пользователями каталогу ссылок на торрент-файлы, которые содержат только списки хеш-сумм

[Профиль] [ЛС]
Показать сообщения:    
Ответить на тему

Текущее время: Сегодня 15:50

Часовой пояс: GMT + 4



Вы не можете начинать темы
Вы не можете отвечать на сообщения
Вы не можете редактировать свои сообщения
Вы не можете удалять свои сообщения
Вы не можете голосовать в опросах
Вы не можете прикреплять файлы к сообщениям
Вы не можете скачивать файлы