Падение / Извне / Хищники-инопланетяне / The Falling / Alien Predator / Mutant 2 / Alien Predators (Деран Сэрафьян / Deran Sarafian) [1985, США, Испания, ужасы, фантастика, драма, HDTV 1080i] DVO (НТВ+) + Original Eng

Ответить на тему
 
Автор Сообщение

user ®

Стаж: 7 лет 7 месяцев

Сообщений: 20008

Пост Пост: #1 от 27-Сен-2015 18:54

[Цитировать]

Падение / The Falling- Страна: США, Испания
Студия: Continental Motion Pictures, M&C Films, Royal Films
Жанр: ужасы, фантастика, драма
Год выпуска: 1985
Продолжительность: 01:26:54-Перевод: Профессиональный (двухголосый закадровый) НТВ+ | Людмила Шувалова, Игорь Тарадайкин
Cубтитры: нет
Оригинальная аудиодорожка: английский-Режиссер: Деран Сэрафьян / Deran Sarafian
В ролях: Деннис Кристофер, Мартин Хьюит, Линн-Холли Джонсон, Луис Прендес, Дж. Боссо, Юсаф Бохари, Иоланда Паломо, Кристина Огустен, Кристина Сан Хуан, Пабло Гарсия- | Релиз: -Описание: Находясь на отдыхе в Испании, трое друзей попадают в небольшую деревушку, с населением которой происходят странные и жуткие вещи — её жители начинают страдать от обильного кровотечения, после чего в течение двух суток их тела и вовсе превращаются в кровавое месиво. Выясняется, что несколько лет назад здесь произошло крушение космической станции, на которой проводились эксперименты в области вирусологии.-Семпл: http://sendfile.su/1158435-Тип релиза: HDTV 1080i
Контейнер: TS
Видео: 1920x1080i (16:9), 25.000 fps, AVC, ~6144 kbps, 0.119 bits/pixel
Аудио 1: Русский, 48.0 KHz, MPEG-1 Audio layer 2, 2 ch, 192 kbps
Аудио 2: English, 48.0 KHz, MPEG-1 Audio layer 2, 2 ch, 192 kbps
MediaInfo
GeneralID : 1 (0x1)Complete name : The Falling 1985 MGMHD 1080i.rus.eng.tsFormat : MPEG-TSFile size : 4.20 GiBDuration : 1h 26mnOverall bit rate mode : VariableOverall bit rate : 6 916 KbpsMaximum Overall bit rate : 35.5 Mbps
VideoID : 4113 (0x1011)Menu ID : 1 (0x1)Format : AVCFormat/Info : Advanced Video CodecFormat profile : Main@L4Format settings, CABAC : YesFormat settings, ReFrames : 4 framesCodec ID : 27Duration : 1h 26mnBit rate : 6 187 KbpsWidth : 1 920 pixelsHeight : 1 080 pixelsDisplay aspect ratio : 16:9Frame rate : 25.000 fpsStandard : ComponentColor space : YUVChroma subsampling : 4:2:0Bit depth : 8 bitsScan type : InterlacedScan order : Top Field FirstBits/(Pixel*Frame) : 0.119Stream size : 3.76 GiB (89%)Color range : LimitedColor primaries : BT.709Transfer characteristics : BT.709Matrix coefficients : BT.709
Audio #1ID : 4352 (0x1100)Menu ID : 1 (0x1)Format : MPEG AudioFormat version : Version 1Format profile : Layer 2Codec ID : 4Duration : 1h 26mnBit rate mode : ConstantBit rate : 192 KbpsChannel(s) : 2 channelsSampling rate : 48.0 KHzCompression mode : LossyStream size : 119 MiB (3%)Language : Russian
Audio #2ID : 4353 (0x1101)Menu ID : 1 (0x1)Format : MPEG AudioFormat version : Version 1Format profile : Layer 2Codec ID : 4Duration : 1h 26mnBit rate mode : ConstantBit rate : 192 KbpsChannel(s) : 2 channelsSampling rate : 48.0 KHzCompression mode : LossyStream size : 119 MiB (3%)Language : English
Скриншоты
Скачать

Скачать торрент!

Как скачивать? · Что такое торрент? · Рейтинг и ограничения

Сайт не распространяет и не хранит электронные версии произведений, а лишь предоставляет доступ к создаваемому пользователями каталогу ссылок на торрент-файлы, которые содержат только списки хеш-сумм

[Профиль] [ЛС]
Показать сообщения:    
Ответить на тему

Текущее время: Сегодня 06:28

Часовой пояс: GMT + 4



Вы не можете начинать темы
Вы не можете отвечать на сообщения
Вы не можете редактировать свои сообщения
Вы не можете удалять свои сообщения
Вы не можете голосовать в опросах
Вы не можете прикреплять файлы к сообщениям
Вы не можете скачивать файлы