Теория убийств / Kill Theory (Крис Мур / Chris Moore) [2009, США, ужасы, триллер, BDRip 720p] Dub + MVO + Original (Eng) + Sub (Rus, Eng)

Ответить на тему
 
Автор Сообщение

user ®

Стаж: 7 лет 7 месяцев

Сообщений: 20008

Пост Пост: #1 от 27-Сен-2015 18:54

[Цитировать]

Теория убийств / Kill Theory
«Вы убили бы своих лучших друзей, чтобы выжить?»
- Страна: США
Жанр: ужасы, триллер
Год выпуска: 2009
Продолжительность: 01:25:14-Перевод №1: Профессиональный (дублированный)
Перевод №2: Профессиональный (многоголосый закадровый)
Оригинальная аудиодорожка: English
Cубтитры: Русские (полные), English (full)
Навигация по главам: присутствует - 12 глав-Режиссер: Крис Мур / Chris Moore
В ролях: Дон МакМанус, Райанн Дузич, Тедди Данн, Дэниел Фрэнзиси, Агнес Брукнер, Патрик Флюгер, Стеффи Викенс, Тео Росси, Тэрин Мэннинг, Кевин Гейдж, Тревер О’Брайэн-Описание: Группа друзей отправляются в небольшую гостиницу, чтобы отпраздновать окончание колледжа, но попадают в ловушку маньяка-убийцы: к 6-ти утра следующего дня только один из них останется в живых, но если более чем один из них будет жив, то умрут все. Поэтому каждый должен стать убийцей, чтобы выжить.-
Download sample-Качество видео: BDRip 720p | исх. [url=http://***/forum/viewtopic.php?t=4911324]BDRemux 1080p[/url] - thx: rashstep
Формат: MKV-Видео: 1 280x694 (1.85:1), 23.976 fps, H.264 ~7 500 kbps avg, 0.344 bit/pixel
Аудио №1: 48.0 kHz, AC3 Dolby Digital, 3/2 (L,C,R,l,r) + LFE ch, ~448 kbps | Профессиональный (дублированный)
Аудио №2: 48.0 kHz, AC3 Dolby Digital, 3/2 (L,C,R,l,r) + LFE ch, ~448 kbps | Профессиональный (многоголосый закадровый)
Аудио №3: 48.0 kHz, AC3 Dolby Digital, 3/2 (L,C,R,l,r) + LFE ch, ~640 kbps | English
Субтитры №1: Русские (полные) | *.srt
Субтитры №2: English (full) | *.srt-

MediaInfo
General
Unique ID : 235324750874099219303652240394242507677 (0xB109E5FFED5E06E8AE0F708C3438439D)
Complete name : D:\Фильмы\Рипы\Kill Theory.2009.BDRip-AVC.eFK tRuAVC.mkv
Format : Matroska
Format version : Version 4 / Version 2
File size : 5.38 GiB
Duration : 1h 25mn
Overall bit rate : 9 037 Kbps
Movie name : Теория убийств / Kill Theory (2009) - Release for rutracker
Encoded date : UTC 2015-09-26 19:11:15
Writing application : mkvmerge v7.6.0 ('Garden of Dreams') 64bit built on Feb 8 2015 13:04:34
Writing library : libebml v1.3.1 + libmatroska v1.4.2
Attachements : cover.jpg
DURATION : 01:25:13.984000000
NUMBER_OF_FRAMES : 159812
NUMBER_OF_BYTES : 409118720
_STATISTICS_WRITING_APP : mkvmerge v7.6.0 ('Garden of Dreams') 64bit built on Feb 8 2015 13:04:34
_STATISTICS_WRITING_DATE_UT : 2015-09-26 19:11:15
_STATISTICS_TAGS : BPS DURATION NUMBER_OF_FRAMES NUMBER_OF_BYTES
Video
ID : 1
Format : AVC
Format/Info : Advanced Video Codec
Format profile : High@L4.1
Format settings, CABAC : Yes
Format settings, ReFrames : 8 frames
Codec ID : V_MPEG4/ISO/AVC
Duration : 1h 25mn
Bit rate : 7 321 Kbps
Width : 1 280 pixels
Height : 694 pixels
Display aspect ratio : 1.85:1
Frame rate mode : Constant
Frame rate : 23.976 fps
Color space : YUV
Chroma subsampling : 4:2:0
Bit depth : 8 bits
Scan type : Progressive
Bits/(Pixel*Frame) : 0.344
Stream size : 4.36 GiB (81%)
Title : eFK tRuAVC
Writing library : x264 core 148 r2597kMod e86f3a1
Encoding settings : cabac=1 / ref=8 / deblock=1:-3:-3 / analyse=0x3:0x113 / me=umh / subme=11 / psy=1 / fade_compensate=0.00 / psy_rd=1.00:0.00 / mixed_ref=1 / me_range=48 / chroma_me=1 / trellis=2 / 8x8dct=1 / cqm=0 / deadzone=21,11 / fast_pskip=0 / chroma_qp_offset=-2 / threads=12 / lookahead_threads=3 / sliced_threads=0 / nr=0 / decimate=1 / interlaced=0 / bluray_compat=0 / constrained_intra=0 / fgo=0 / bframes=16 / b_pyramid=2 / b_adapt=2 / b_bias=0 / direct=3 / weightb=1 / open_gop=0 / weightp=2 / keyint=250 / keyint_min=23 / scenecut=40 / intra_refresh=0 / rc_lookahead=60 / rc=crf / mbtree=0 / crf=18.0000 / qcomp=0.70 / qpmin=0 / qpmax=69 / qpstep=4 / vbv_maxrate=62500 / vbv_bufsize=78125 / crf_max=0.0 / nal_hrd=none / filler=0 / ip_ratio=1.40 / pb_ratio=1.30 / aq=3:0.85
Language : English
Default : Yes
Forced : No
Color range : Limited
Color primaries : BT.709
Transfer characteristics : BT.709
Matrix coefficients : BT.709
DURATION : 01:25:13.901000000
NUMBER_OF_FRAMES : 122611
NUMBER_OF_BYTES : 4793030370
_STATISTICS_WRITING_APP : mkvmerge v7.6.0 ('Garden of Dreams') 64bit built on Feb 8 2015 13:04:34
_STATISTICS_WRITING_DATE_UT : 2015-09-26 19:11:15
_STATISTICS_TAGS : BPS DURATION NUMBER_OF_FRAMES NUMBER_OF_BYTES
Audio #1
ID : 2
Format : AC-3
Format/Info : Audio Coding 3
Mode extension : CM (complete main)
Format settings, Endianness : Big
Codec ID : A_AC3
Duration : 1h 25mn
Bit rate mode : Constant
Bit rate : 448 Kbps
Channel(s) : 6 channels
Channel positions : Front: L C R, Side: L R, LFE
Sampling rate : 48.0 KHz
Compression mode : Lossy
Stream size : 273 MiB (5%)
Title : Dub
Language : Russian
Default : Yes
Forced : No
Audio #2
ID : 3
Format : AC-3
Format/Info : Audio Coding 3
Mode extension : CM (complete main)
Format settings, Endianness : Big
Codec ID : A_AC3
Duration : 1h 25mn
Bit rate mode : Constant
Bit rate : 448 Kbps
Channel(s) : 6 channels
Channel positions : Front: L C R, Side: L R, LFE
Sampling rate : 48.0 KHz
Compression mode : Lossy
Stream size : 273 MiB (5%)
Title : MVO
Language : Russian
Default : No
Forced : No
Audio #3
ID : 4
Format : AC-3
Format/Info : Audio Coding 3
Mode extension : CM (complete main)
Format settings, Endianness : Big
Codec ID : A_AC3
Duration : 1h 25mn
Bit rate mode : Constant
Bit rate : 640 Kbps
Channel(s) : 6 channels
Channel positions : Front: L C R, Side: L R, LFE
Sampling rate : 48.0 KHz
Compression mode : Lossy
Stream size : 390 MiB (7%)
Language : English
Default : No
Forced : No
Text #1
ID : 5
Format : UTF-8
Codec ID : S_TEXT/UTF8
Codec ID/Info : UTF-8 Plain Text
Title : полные
Language : Russian
Default : No
Forced : No
Text #2
ID : 6
Format : UTF-8
Codec ID : S_TEXT/UTF8
Codec ID/Info : UTF-8 Plain Text
Title : full
Language : English
Default : No
Forced : No
Menu
00:00:00.000 : :Chapter 01
00:08:09.322 : :Chapter 02
00:16:17.185 : :Chapter 03
00:22:37.565 : :Chapter 04
00:27:55.424 : :Chapter 05
00:33:20.332 : :Chapter 06
00:38:17.921 : :Chapter 07
00:47:00.359 : :Chapter 08
00:55:40.963 : :Chapter 09
01:02:34.668 : :Chapter 10
01:10:51.831 : :Chapter 11
01:18:08.934 : :Chapter 12
x264 log
x264 [info]: frame I:755 Avg QP:13.12 size:130930
x264 [info]: frame P:23801 Avg QP:15.47 size: 62297
x264 [info]: frame B:98055 Avg QP:17.63 size: 32751
x264 [info]: consecutive B-frames: 1.3% 2.5% 5.7% 8.5% 13.1% 56.7% 4.4% 0.8% 1.0% 1.6% 0.6% 0.5% 0.3% 0.5% 0.3% 0.3% 1.5%
x264 [info]: mb I I16..4: 14.4% 71.9% 13.7%
x264 [info]: mb P I16..4: 1.4% 25.1% 1.5% P16..4: 21.1% 25.8% 10.9% 0.0% 0.0% skip:14.2%
x264 [info]: mb B I16..4: 0.3% 4.9% 0.2% B16..8: 34.5% 21.1% 5.2% direct: 7.7% skip:26.1% L0:47.1% L1:43.8% BI: 9.1%
x264 [info]: 8x8 transform intra:89.4% inter:59.3%
x264 [info]: direct mvs spatial:99.7% temporal:0.3%
x264 [info]: coded y,uvDC,uvAC intra: 87.8% 76.7% 52.2% inter: 42.4% 25.8% 2.8%
x264 [info]: i16 v,h,dc,p: 78% 7% 6% 9%
x264 [info]: i8 v,h,dc,ddl,ddr,vr,hd,vl,hu: 9% 6% 16% 10% 13% 12% 11% 11% 12%
x264 [info]: i4 v,h,dc,ddl,ddr,vr,hd,vl,hu: 17% 6% 21% 7% 11% 11% 9% 9% 10%
x264 [info]: i8c dc,h,v,p: 42% 27% 18% 13%
x264 [info]: Weighted P-Frames: Y:5.1% UV:3.8%
x264 [info]: ref P L0: 40.3% 7.5% 20.7% 9.2% 7.7% 5.6% 5.3% 3.3% 0.4% 0.0%
x264 [info]: ref B L0: 65.5% 14.9% 8.5% 4.8% 3.6% 2.0% 0.7%
x264 [info]: ref B L1: 90.1% 9.9%
x264 [info]: kb/s:7498.04
x264 [total]: encoded 122611 frames, 5.52 fps, 7498.04 kb/s, duration 6:10:24.71
Screenshots Comparison
Скачать

Скачать торрент!

Как скачивать? · Что такое торрент? · Рейтинг и ограничения

Сайт не распространяет и не хранит электронные версии произведений, а лишь предоставляет доступ к создаваемому пользователями каталогу ссылок на торрент-файлы, которые содержат только списки хеш-сумм

[Профиль] [ЛС]
Показать сообщения:    
Ответить на тему

Текущее время: Сегодня 10:46

Часовой пояс: GMT + 4



Вы не можете начинать темы
Вы не можете отвечать на сообщения
Вы не можете редактировать свои сообщения
Вы не можете удалять свои сообщения
Вы не можете голосовать в опросах
Вы не можете прикреплять файлы к сообщениям
Вы не можете скачивать файлы