Первоклассница (Илья Фрэз) [1948, Детский, семейный, приключения, DVDRip]

Ответить на тему
 
Автор Сообщение

user ®

Стаж: 7 лет 7 месяцев

Сообщений: 20008

Пост Пост: #1 от 27-Сен-2015 18:54

[Цитировать]

Первоклассница- -Жанр: Детский, семейный, приключения
Год выпуска: 1948
Продолжительность: 01:07:31
-Режиссёр: Илья Фрэз
Сценарий: Евгений Шварц
-В ролях: Тамара Макарова, Татьяна Барышева, Наталья Защипина, Кира Головко, Валентина Кибардина, Степан Каюков, Мария Яроцкая, Елена Егорова, Кира Иванова, Елена Таранова, Тамара Вихман, Игорь Ерошкин, Елена Максимова, Георгий Милляр, Ростислав Плятт, Владимир Уральский и др.-Описание: Замечательный детский фильм о том, как благодаря опытной учительнице и подружкам-одноклассницам, Маруся Орлова превратилась из дошкольницы в первоклассницу, а потом ещё и в дисциплинированную ученицу, отлично закончившую первый класс...-Качество видео: DVDRip [url=http://***/forum/viewtopic.php?t=4946640]Первоклассница (Илья Фрэз) [1948, детский, семейный, приключения, DVD5][/url]Формат видео: AVI-Видео: XviD MPEG-4, 688x512, 4:3, 25.000 fps, ~1313 kbps avg, 0.149 bit/pixel
Аудио: MP-3 Joint stereo, CBR 128 kbps 2 ch, 48.0 KHz
- MediaInfo
ОбщееПолное имя : V:\Pervoklassnitsa_1948_DVDRip_[***].aviФормат : AVIФормат/Информация : Audio Video InterleaveРазмер файла : 700 МбайтПродолжительность : 1 ч. 7 м.Общий поток : 1448 Кбит/секПрограмма кодирования : VirtualDubModRus 1.5.10.2 (build 2542/release)Библиотека кодирования : VirtualDubMod build 2542/release
ВидеоИдентификатор : 0Формат : MPEG-4 VisualПрофиль формата : Advanced Simple@L5Параметр BVOP формата : 1Параметр QPel формата : НетПараметр GMC формата : Без точки переходаПараметр матрицы формата : ВыборочнаяИдентификатор кодека : DX50Идентификатор кодека/Подсказка : DivX 5Продолжительность : 1 ч. 7 м.Битрейт : 1313 Кбит/секШирина : 688 пикселейВысота : 512 пикселейСоотношение сторон : 4:3Частота кадров : 25,000 кадров/секЦветовое пространство : YUVСубдискретизация насыщенности : 4:2:0Битовая глубина : 8 битТип развёртки : ПрогрессивнаяМетод сжатия : С потерямиБит/(Пиксели*Кадры) : 0.149Размер потока : 634 Мбайт (91%)Библиотека кодирования : XviD 64
АудиоИдентификатор : 1Формат : MPEG AudioВерсия формата : Version 1Профиль формата : Layer 3Режим : Joint stereoРасширение режима : MS StereoИдентификатор кодека : 55Идентификатор кодека/Подсказка : MP3Продолжительность : 1 ч. 7 м.Вид битрейта : ПостоянныйБитрейт : 128 Кбит/секКаналы : 2 каналаЧастота : 48,0 КГцМетод сжатия : С потерямиРазмер потока : 61,8 Мбайт (9%)Выравнивание : Соединение по промежуткамПродолжительность промежутка : 80 мс. (2,00 видеокадра)Время предзагрузки промежутка : 504 мс.Библиотека кодирования : LAME3.97Настройки программы : -m j -V 4 -q 2 -lowpass 17 -b 128
Скриншот c названием фильма Скриншоты Время раздачи - по возможности.
Скачать

Скачать торрент!

Как скачивать? · Что такое торрент? · Рейтинг и ограничения

Сайт не распространяет и не хранит электронные версии произведений, а лишь предоставляет доступ к создаваемому пользователями каталогу ссылок на торрент-файлы, которые содержат только списки хеш-сумм

[Профиль] [ЛС]
Показать сообщения:    
Ответить на тему

Текущее время: Сегодня 10:05

Часовой пояс: GMT + 4



Вы не можете начинать темы
Вы не можете отвечать на сообщения
Вы не можете редактировать свои сообщения
Вы не можете удалять свои сообщения
Вы не можете голосовать в опросах
Вы не можете прикреплять файлы к сообщениям
Вы не можете скачивать файлы