Осторожно - нервы! (Евгений Сивоконь) [1975, мультфильм для взрослых, TVRip]

Ответить на тему
 
Автор Сообщение

user ®

Стаж: 7 лет 7 месяцев

Сообщений: 20008

Пост Пост: #1 от 26-Сен-2015 11:54

[Цитировать]

Осторожно - нервы!
Страна: СССР (Украинская республика)
Жанр: мультфильм для взрослых
Продолжительность: 00:06:52
Год выпуска: 1975
Перевод: Не требуется
Русские субтитры: нет
Режиссёр: Евгений Сивоконь
Описание: Жизнь человека и его нервной системы, которая в этом мультфильме изображена в виде маленького человечка, живущего внутри своего хозяина и остро реагирующего на все воздействия извне.
Качество: TVRip
Формат: AVI
Видео: 2063 kbps, 528х400 (4:3), 25.000 fps, MPEG-4 Visual (XviD)
Аудио: 96 kbps, 48.0 kHz, 1 channel, MPEG Audio (MP3)
Субтитры: отсутствуют
Подробные технические данные
GeneralComplete name : Осторожно - нервы! (1975).aviFormat : AVIFormat/Info : Audio Video InterleaveFile size : 107 MiBDuration : 6mn 52sOverall bit rate : 2 172 KbpsWriting application : Lavf55.33.100
VideoID : 0Format : MPEG-4 VisualFormat profile : Advanced Simple@L5Format settings, BVOP : NoFormat settings, QPel : NoFormat settings, GMC : No warppointsFormat settings, Matrix : Default (H.263)Codec ID : XVIDCodec ID/Hint : XviDDuration : 6mn 52sBit rate : 2 063 KbpsWidth : 528 pixelsHeight : 400 pixelsDisplay aspect ratio : 4:3Frame rate : 25.000 fpsColor space : YUVChroma subsampling : 4:2:0Bit depth : 8 bitsScan type : ProgressiveCompression mode : LossyBits/(Pixel*Frame) : 0.391Stream size : 102 MiB (95%)Writing library : XviD 64
AudioID : 1Format : MPEG AudioFormat version : Version 1Format profile : Layer 3Codec ID : 55Codec ID/Hint : MP3Duration : 6mn 52sBit rate mode : ConstantBit rate : 96.0 KbpsChannel(s) : 1 channelSampling rate : 48.0 KHzCompression mode : LossyStream size : 4.72 MiB (4%)Alignment : Aligned on interleavesInterleave, duration : 24 ms (0.60 video frame)Interleave, preload duration : 24 msWriting library : LAME3.99.5ЄЄЄЄЄЄЄЄЄЄ
Скриншоты
Скачать

Скачать торрент!

Как скачивать? · Что такое торрент? · Рейтинг и ограничения

Сайт не распространяет и не хранит электронные версии произведений, а лишь предоставляет доступ к создаваемому пользователями каталогу ссылок на торрент-файлы, которые содержат только списки хеш-сумм

[Профиль] [ЛС]
Показать сообщения:    
Ответить на тему

Текущее время: Сегодня 22:14

Часовой пояс: GMT + 4



Вы не можете начинать темы
Вы не можете отвечать на сообщения
Вы не можете редактировать свои сообщения
Вы не можете удалять свои сообщения
Вы не можете голосовать в опросах
Вы не можете прикреплять файлы к сообщениям
Вы не можете скачивать файлы