Ночные движения / Night Moves (Келли Райхардт / Kelly Reichardt) [2013, США, триллер, драма, BDRip 720p] Original (Eng) + Sub (Rus, Eng)

Ответить на тему
 
Автор Сообщение

user ®

Стаж: 7 лет 7 месяцев

Сообщений: 20008

Пост Пост: #1 от 25-Сен-2015 17:15

[Цитировать]

Ночные движения / Night Moves
Год выпуска: 2013
Страна: США
Жанр: триллер, драма
Продолжительность: 01:52:38
Перевод: субтитры (Psychotechnic)
Cубтитры: русские, английские
Оригинальная аудиодорожка: английская
Оглавление: 12 англоязычных глав
Режиссёр: Келли Райхардт /Kelly Reichardt/
В ролях: Джесси Айзенберг /Jesse Eisenberg/, Дакота Фаннинг /Dakota Fanning/, Питер Сарсгаард /Peter Sarsgaard/, Алиа Шокат /Alia Shawkat/, Логан Миллер /Logan Miller/, Кай Леннокс /Kai Lennox/, Кэтрин Уотерстон /Katherine Waterston/, Джеймс ЛеГрос /James Le Gros/
Описание:
Фильм расскажет о трех защитниках окружающей среды, которые медленно, но верно приходят к намерению взорвать дамбу.
Дополнительная информация:
IMDB User Rating→: 6.0/10 (8,508 votes)
Рейтинг фильма КиноПоиск.Ru→: 6.239 (293 голоса)
  • В русских субтитрах присутствует ненормативная лексика.
    Качество: BDRip (by BodoiCuHo@VietHD)
    Контейнер: MKV
    Видеопоток: 1280x720p, 23.976 fps, x264 ~7275 kbps
    Аудиопоток (ENG): DD 5.1, 48 kHz, 640 kbps
    Субтитры №1 (RUS): SRT/UTF8 | Psychotechnic
    Субтитры №2 (ENG): SRT/UTF8 | SDH
    Сэмпл: Яндекс.Диск→, multi-up→, nekaka→, sendspace→
    x264 Log
x264 [info]: frame I:811   Avg QP:14.51  size:119235
x264 [info]: frame P:29242 Avg QP:15.46  size: 54494
x264 [info]: frame B:131971 Avg QP:17.13  size: 33761
x264 [info]: consecutive B-frames:  0.9%  1.1%  3.4%  6.5%  8.4% 66.3%  4.6%  2.4%  4.2%  0.9%  1.1%  0.3%
encoded 162024 frames, 9.28 fps, 7275.34 kb/s, duration 4:50:55.27
MediaInfo
General
Unique ID                                : 222593363198569885728819332745965817710 (0xA775EC1FD2FF9B0EB9C9FF3248A34F6E)
Complete name                            : Night.Moves.2013.720p.BDRip.x264.DD.SRT-VietHD.mkv
Format                                   : Matroska
Format version                           : Version 4 / Version 2
File size                                : 6.23 GiB
Duration                                 : 1h 52mn
Overall bit rate                         : 7 917 Kbps
Movie name                               : Night Moves (2013) 720p BDRip by VietHD
Encoded date                             : UTC 2015-09-24 04:54:06
Writing application                      : mkvmerge v7.8.0 ('River Man') 64bit built on Mar 27 2015 16:31:37
Writing library                          : libebml v1.3.1 + libmatroska v1.4.2
DURATION                                 : 01:47:22.300000000
NUMBER_OF_FRAMES                         : 1093
NUMBER_OF_BYTES                          : 51107
_STATISTICS_WRITING_APP                  : mkvmerge v7.8.0 ('River Man') 64bit built on Mar 27 2015 16:31:37
_STATISTICS_WRITING_DATE_UTC             : 2015-09-24 04:54:06
_STATISTICS_TAGS                         : BPS DURATION NUMBER_OF_FRAMES NUMBER_OF_BYTES
Video
ID                                       : 1
Format                                   : AVC
Format/Info                              : Advanced Video Codec
Format profile                           : High@L4.1
Format settings, CABAC                   : Yes
Format settings, ReFrames                : 9 frames
Codec ID                                 : V_MPEG4/ISO/AVC
Duration                                 : 1h 52mn
Bit rate                                 : 7 120 Kbps
Width                                    : 1 280 pixels
Height                                   : 720 pixels
Display aspect ratio                     : 16:9
Frame rate mode                          : Constant
Frame rate                               : 23.976 fps
Color space                              : YUV
Chroma subsampling                       : 4:2:0
Bit depth                                : 8 bits
Scan type                                : Progressive
Bits/(Pixel*Frame)                       : 0.322
Stream size                              : 5.60 GiB (90%)
Title                                    : 1280x720, 23.976 fps, x264 ~7275 kbps
Writing library                          : x264 core 142 r2453kMod ea0ca51
Encoding settings                        : cabac=1 / ref=9 / deblock=1:-3:-3 / analyse=0x3:0x133 / me=umh / subme=10 / psy=1 / fade_compensate=0.00 / psy_rd=1.50:0.00 / mixed_ref=1 / me_range=24 / chroma_me=1 / trellis=2 / 8x8dct=1 / cqm=0 / deadzone=21,11 / fast_pskip=1 / chroma_qp_offset=-2 / threads=12 / lookahead_threads=3 / sliced_threads=0 / nr=0 / decimate=1 / interlaced=0 / bluray_compat=0 / constrained_intra=0 / fgo=0 / bframes=11 / b_pyramid=2 / b_adapt=2 / b_bias=0 / direct=3 / weightb=1 / open_gop=0 / weightp=2 / keyint=250 / keyint_min=23 / scenecut=40 / intra_refresh=0 / rc=crf / mbtree=0 / crf=17.5000 / qcomp=0.65 / qpmin=0 / qpmax=69 / qpstep=4 / ip_ratio=1.30 / pb_ratio=1.20 / aq=3:0.70
Language                                 : English
Default                                  : Yes
Forced                                   : No
Color range                              : Limited
Matrix coefficients                      : BT.709
DURATION                                 : 01:52:37.751000000
NUMBER_OF_FRAMES                         : 162024
NUMBER_OF_BYTES                          : 6145616324
_STATISTICS_WRITING_APP                  : mkvmerge v7.8.0 ('River Man') 64bit built on Mar 27 2015 16:31:37
_STATISTICS_WRITING_DATE_UTC             : 2015-09-24 04:54:06
_STATISTICS_TAGS                         : BPS DURATION NUMBER_OF_FRAMES NUMBER_OF_BYTES
Audio
ID                                       : 2
Format                                   : AC-3
Format/Info                              : Audio Coding 3
Mode extension                           : CM (complete main)
Format settings, Endianness              : Big
Codec ID                                 : A_AC3
Duration                                 : 1h 52mn
Bit rate mode                            : Constant
Bit rate                                 : 640 Kbps
Channel(s)                               : 6 channels
Channel positions                        : Front: L C R, Side: L R, LFE
Sampling rate                            : 48.0 KHz
Bit depth                                : 16 bits
Compression mode                         : Lossy
Stream size                              : 516 MiB (8%)
Title                                    : ENG DD 5.1, 48 kHz, 640 kbps
Language                                 : English
Default                                  : Yes
Forced                                   : No
Text #1
ID                                       : 3
Format                                   : UTF-8
Codec ID                                 : S_TEXT/UTF8
Codec ID/Info                            : UTF-8 Plain Text
Title                                    : RUS Psychotechnic SRT
Language                                 : Russian
Default                                  : Yes
Forced                                   : No
Text #2
ID                                       : 4
Format                                   : UTF-8
Codec ID                                 : S_TEXT/UTF8
Codec ID/Info                            : UTF-8 Plain Text
Title                                    : ENG SDH SRT
Language                                 : English
Default                                  : No
Forced                                   : No
Menu
00:00:00.000                             : en:Small Plans
00:09:59.307                             : en:The Deal
00:22:01.195                             : en:500 lbs of Fertilizer
00:32:47.382                             : en:Heading Upstream
00:43:58.135                             : en:Target In Place
00:57:21.855                             : en:The Getaway
01:03:55.248                             : en:Back to Normal
01:13:50.509                             : en:Lost Camper
01:22:36.243                             : en:People Talking
01:29:44.379                             : en:Off The Deep End
01:41:34.088                             : en:Disappear
01:47:57.471                             : en:Credits
Скриншоты Source vs. VietHD
Скачать

Скачать торрент!

Как скачивать? · Что такое торрент? · Рейтинг и ограничения

Сайт не распространяет и не хранит электронные версии произведений, а лишь предоставляет доступ к создаваемому пользователями каталогу ссылок на торрент-файлы, которые содержат только списки хеш-сумм

[Профиль] [ЛС]
Показать сообщения:    
Ответить на тему

Текущее время: Сегодня 04:08

Часовой пояс: GMT + 4



Вы не можете начинать темы
Вы не можете отвечать на сообщения
Вы не можете редактировать свои сообщения
Вы не можете удалять свои сообщения
Вы не можете голосовать в опросах
Вы не можете прикреплять файлы к сообщениям
Вы не можете скачивать файлы