Между жизнью и смертью / Sehar (Кабир Каушик / Kabeer Kaushik) [2005, Индия, Боевик, драма, криминал, DVDRip] MVO (Амир) + MVO (Zee Tv)

Ответить на тему
 
Автор Сообщение

user ®

Стаж: 12 лет

Сообщений: 15092

Пост Пост: #1 от 25-Сен-2015 11:03

[Цитировать]

Между жизнью и смертью / Sehar
Страна: Индия
Жанр: Боевик, драма, криминал
Год выпуска: 2005
Продолжительность: 02:00:06
Перевод: Профессиональный (многоголосый закадровый) Амир
Перевод 2: Профессиональный (многоголосый закадровый) Zee Tv
Cубтитры: нет
Режиссер: Кабир Каушик / Kabeer Kaushik
В ролях: Аршад Варси, Панкадж Капур, Махима Чаудхари, Сушант Сингх, Навед Аслам, Сухасини Малай, Раджендра Гупта, Ганшьям Герг, Рави Джанкал, Пратима Казми
Описание: Сотрудник специального отдела полиции Аджай Кумар расследует дело, в котором замешаны и высокопоставленные чины и организованная преступность. Вскоре он выходит на след главаря мафии. Кто победит в этой схватке между жизнью и смертью?
Доп. информация: Релиз: Кинозал
Сведение звука: oktober (Спасибо!)
Сэмпл: http://multi-up.com/1068040
Качество видео: DVDRip
Формат видео: AVI
Видео: XviD build 50, 640x272 (2.35:1), 25 fps, 1220 kbps avg
Аудио: Rus AC3 Dolby Digital, 48 kHz, 2/0 (L,R) ch, 192.00 kbps - Амир
Аудио 2: Rus AC3 Dolby Digital, 48 kHz, 2/0 (L,R) ch, 192.00 kbps - Zee Tv
MediaInfo
General
Complete name : F:\Mezhdu.zhiznuy.i.smertuy.2005.XviD.DVDRip.oktober.avi
Format : AVI
Format/Info : Audio Video Interleave
File size : 1.36 GiB
Duration : 2h 0mn
Overall bit rate : 1 620 Kbps
Writing application : VirtualDubMod 1.5.10.2 (build 2540/release)
Writing library : VirtualDubMod build 2540/release
Video
ID : 0
Format : MPEG-4 Visual
Format profile : AdvancedSimple@L5
Format settings, BVOP : Yes
Format settings, QPel : No
Format settings, GMC : No warppoints
Format settings, Matrix : Default (MPEG)
Codec ID : XVID
Codec ID/Hint : XviD
Duration : 2h 0mn
Bit rate : 1 221 Kbps
Width : 640 pixels
Height : 272 pixels
Display aspect ratio : 2.35
Frame rate : 25.000 fps
Resolution : 24 bits
Colorimetry : 4:2:0
Scan type : Progressive
Bits/(Pixel*Frame) : 0.281
Stream size : 1.02 GiB (75%)
Writing library : XviD 1.2.1 (UTC 2008-12-04)
Audio #1
ID : 1
Format : AC-3
Format/Info : Audio Coding 3
Codec ID : 2000
Duration : 2h 0mn
Bit rate mode : Constant
Bit rate : 192 Kbps
Channel(s) : 2 channels
Channel positions : L R
Sampling rate : 48.0 KHz
Stream size : 165 MiB (12%)
Alignment : Split accross interleaves
Interleave, duration : 40 ms (1.00 video frame)
Interleave, preload duration : 500 ms
Audio #2
ID : 2
Format : AC-3
Format/Info : Audio Coding 3
Codec ID : 2000
Duration : 2h 0mn
Bit rate mode : Constant
Bit rate : 192 Kbps
Channel(s) : 2 channels
Channel positions : L R
Sampling rate : 48.0 KHz
Stream size : 165 MiB (12%)
Alignment : Split accross interleaves
Interleave, duration : 40 ms (1.00 video frame)
Interleave, preload duration : 500 ms
Скриншоты
Скачать

Скачать торрент! Между жизнью и смертью / Sehar (Кабир Каушик / Kabeer Kaushik) [2005, Индия, Боевик, драма, криминал, DVDRip] MVO (Амир) + MVO (Zee Tv)

Как скачивать? · Что такое торрент? · Рейтинг и ограничения

Сайт не распространяет и не хранит электронные версии произведений, а лишь предоставляет доступ к создаваемому пользователями каталогу ссылок на торрент-файлы, которые содержат только списки хеш-сумм

[Профиль] [ЛС]
Показать сообщения:    
Ответить на тему

Текущее время: Сегодня 02:04

Часовой пояс: GMT + 4



Вы не можете начинать темы
Вы не можете отвечать на сообщения
Вы не можете редактировать свои сообщения
Вы не можете удалять свои сообщения
Вы не можете голосовать в опросах
Вы не можете прикреплять файлы к сообщениям
Вы не можете скачивать файлы