Происшествие на Хилл-роуд / Accident on Hill Road (Махеш Наир / Mahesh Nair) [2010, Индия, Триллер, драма, криминал, WEBRip] MVO (Red Media)

Ответить на тему
 
Автор Сообщение

user ®

Стаж: 12 лет

Сообщений: 15092

Пост Пост: #1 от 25-Сен-2015 11:03

[Цитировать]

Происшествие на Хилл-роуд / Accident on Hill Road
Страна: Индия
Жанр: Триллер, драма, криминал
Год выпуска: 2010
Продолжительность: 01:44:33
Перевод: Профессиональный (многоголосый закадровый) Red Media
Cубтитры: нет
Режиссер: Махеш Наир / Mahesh Nair
В ролях: Селина Джейтли, Фарук Шейх, Амбхимани Сингх, Манмит Сингх, Рукхсар, Шамми, Шобха Кхоте, Дадхи Радж, Прия Ахуджа, Ашок, Сушма Бхагват, Банти Чопра, Парвез Кхан
Описание: После удачной вечеринки Сонам сбивает на дороге человека и он застревает в лобовом стекле. Она так напугана, что едет домой и ставить машину в гараж. Оказывается, что сбитый пешеход жив и он умоляет помочь ему. Но Сонам волнует собственная судьба и она готова пойти на все. Но сбитый человек тоже готов бороться за свою жизнь до конца.
Доп. информация: Сведение звука: oktober (Спасибо!)
Сэмпл: http://multi-up.com/1068042
Качество видео: WEBRip
Формат видео: AVI
Видео: XviD build 50, 720x304 (2.37:1), 25 fps, 1669 kbps avg
Аудио: AC3 Dolby Digital, 48 kHz, 2/0 (L,R) ch, 192 kbps
MediaInfo
General
Complete name : F:\Происшествие на Хилл-роуд\Proisschestvie.Na.Hill-roud.2010.XviD.WEBRip.avi
Format : AVI
Format/Info : Audio Video Interleave
File size : 1.37 GiB
Duration : 1h 44mn
Overall bit rate : 1 872 Kbps
Writing application : VirtualDubMod 1.5.10.2 (build 2540/release)
Writing library : VirtualDubMod build 2540/release
Video
ID : 0
Format : MPEG-4 Visual
Format profile : AdvancedSimple@L5
Format settings, BVOP : Yes
Format settings, QPel : No
Format settings, GMC : No warppoints
Format settings, Matrix : Custom
Codec ID : XVID
Codec ID/Hint : XviD
Duration : 1h 44mn
Bit rate : 1 670 Kbps
Width : 720 pixels
Height : 304 pixels
Display aspect ratio : 2.35
Frame rate : 25.000 fps
Resolution : 24 bits
Colorimetry : 4:2:0
Scan type : Progressive
Bits/(Pixel*Frame) : 0.305
Stream size : 1.22 GiB (89%)
Writing library : XviD 1.2.1 (UTC 2008-12-04)
Audio
ID : 1
Format : AC-3
Format/Info : Audio Coding 3
Codec ID : 2000
Duration : 1h 44mn
Bit rate mode : Constant
Bit rate : 192 Kbps
Channel(s) : 2 channels
Channel positions : L R
Sampling rate : 48.0 KHz
Stream size : 144 MiB (10%)
Alignment : Split accross interleaves
Interleave, duration : 40 ms (1.00 video frame)
Interleave, preload duration : 500 ms
Скриншоты Сравнения
[url=http://***/forum/viewtopic.php?t=3553878]http://***/forum/viewtopic.php?t=3553878[/url] => http://screenshotcomparison.com/comparison/144036/picture:3
перевод тот же
Скачать

Скачать торрент! Происшествие на Хилл-роуд / Accident on Hill Road (Махеш Наир / Mahesh Nair) [2010, Индия, Триллер, драма, криминал, WEBRip] MVO (Red Media)

Как скачивать? · Что такое торрент? · Рейтинг и ограничения

Сайт не распространяет и не хранит электронные версии произведений, а лишь предоставляет доступ к создаваемому пользователями каталогу ссылок на торрент-файлы, которые содержат только списки хеш-сумм

[Профиль] [ЛС]
Показать сообщения:    
Ответить на тему

Текущее время: Сегодня 02:50

Часовой пояс: GMT + 4



Вы не можете начинать темы
Вы не можете отвечать на сообщения
Вы не можете редактировать свои сообщения
Вы не можете удалять свои сообщения
Вы не можете голосовать в опросах
Вы не можете прикреплять файлы к сообщениям
Вы не можете скачивать файлы