Миссия невыполнима: Племя изгоев / Mission: Impossible - Rogue Nation (Кристофер МакКуорри / Christopher McQuarrie) [2015, США, боевик, триллер, приключения, HDTVRip] Dub (Звук c TS)

Ответить на тему
 
Автор Сообщение

user ®

Стаж: 7 лет 7 месяцев

Сообщений: 20008

Пост Пост: #1 от 25-Сен-2015 11:03

[Цитировать]

Миссия невыполнима: Племя изгоев / Mission: Impossible - Rogue Nation
Страна: США
Жанр: боевик, триллер, приключения
Год выпуска: 2015
Продолжительность: 02:11:35
Перевод: Профессиональный (дублированный) Звук c TS
Cубтитры: нет
Режиссер: Кристофер МакКуорри / Christopher McQuarrie
В ролях: Том Круз, Саймон Пегг, Ребекка Фергюсон, Джереми Реннер, Алек Болдуин, Америка Оливо, Винг Реймз, Шон Харрис, Саймон МакБерни, Гермиона Корфилд
Описание: Правительство решает расформировать самый подготовленный и боеспособный отряд, предназначенный для выполнения миссий любой сложности и секретности - команду Итана "Миссия невыполнима". Однако в тоже время самому Итану удается обнаружить неизвестный и таинственный синдикат, о котором только ходили слухи. Как оказалось этот синдикат состоит из изгоев и таких же специалистов высокого класса, как и сама группа Итана. Поэтому наш герой собирается совершить последнюю миссию вместе со своей группой…
Сэмпл: http://multi-up.com/1067965
Качество видео: HDTVRip
Формат видео: AVI
Видео: 720x304 (2.35:1), 25.000 fps, XviD 1.2.1~1350 kbps avg, 0.247 bit/pixel
Аудио: 48.0 kHz, AC-3, 2 ch, ~128 kbps

MediaInfo
General
Complete name : E:\Download\pLeM1a.13g0eB..avi
Format : AVI
Format/Info : Audio Video Interleave
File size : 1.37 GiB
Duration : 2h 11mn
Overall bit rate : 1 488 Kbps
Writing application : VirtualDubMod 1.5.10.2 (build 2540/release)
Writing library : VirtualDubMod build 2540/release
Video
ID : 0
Format : MPEG-4 Visual
Format profile : Advanced Simple@L5
Format settings, BVOP : 2
Format settings, QPel : No
Format settings, GMC : No warppoints
Format settings, Matrix : Default (MPEG)
Codec ID : XVID
Codec ID/Hint : XviD
Duration : 2h 11mn
Bit rate : 1 350 Kbps
Width : 720 pixels
Height : 304 pixels
Display aspect ratio : 2.35:1
Frame rate : 25.000 fps
Color space : YUV
Chroma subsampling : 4:2:0
Bit depth : 8 bits
Scan type : Progressive
Compression mode : Lossy
Bits/(Pixel*Frame) : 0.247
Stream size : 1.24 GiB (91%)
Writing library : XviD 1.2.1 (UTC 2008-12-04)
Audio
ID : 1
Format : AC-3
Format/Info : Audio Coding 3
Mode extension : CM (complete main)
Format settings, Endianness : Big
Codec ID : 2000
Duration : 2h 11mn
Bit rate mode : Constant
Bit rate : 128 Kbps
Channel(s) : 2 channels
Channel positions : Front: L R
Sampling rate : 48.0 KHz
Compression mode : Lossy
Stream size : 120 MiB (9%)
Alignment : Split accross interleaves
Interleave, duration : 40 ms (1.00 video frame)
Interleave, preload duratio : 500 ms
Скриншот c названием фильма Скриншоты
Скачать

Скачать торрент!

Как скачивать? · Что такое торрент? · Рейтинг и ограничения

Сайт не распространяет и не хранит электронные версии произведений, а лишь предоставляет доступ к создаваемому пользователями каталогу ссылок на торрент-файлы, которые содержат только списки хеш-сумм

[Профиль] [ЛС]
Показать сообщения:    
Ответить на тему

Текущее время: Сегодня 09:43

Часовой пояс: GMT + 4



Вы не можете начинать темы
Вы не можете отвечать на сообщения
Вы не можете редактировать свои сообщения
Вы не можете удалять свои сообщения
Вы не можете голосовать в опросах
Вы не можете прикреплять файлы к сообщениям
Вы не можете скачивать файлы