Затаившись / Hidden (Мэтт Даффер / Matt Duffe / Росс Даффер / Ross Duffer) [2015, США, ужасы, триллер, HDRip] DVO (den904 & DeadSno)

Ответить на тему
 
Автор Сообщение

user ®

Стаж: 7 лет 7 месяцев

Сообщений: 20008

Пост Пост: #1 от 25-Сен-2015 11:03

[Цитировать]

Затаившись / Hidden
Страна: США
Жанр: ужасы, триллер
Год выпуска: 2015
Продолжительность: 01:22:48-Перевод: Любительский (двухголосный закадровый) den904 & DeadSno
Cубтитры: нет
Режиссер: Мэтт Даффер / Matt Duffe / Росс Даффер / Ross Duffer-В ролях: Александр Скарсгард, Андреа Райзборо, Эмили Элин Линд, Хезер Дорксен, Уильям Энскау-Описание: Рэй, Клэр и их семилетняя дочь Зои — обычная американская семья, живущая в Кингсвилле, Северная Каролина, — вот только живут они в бомбоубежище с тех самых пор, как наступил конец света, который изменил все.
За 301 день они превратили свою бетонную темницу в дом, держась за воспоминания о прошлом и надеясь когда-нибудь вернуться к нормальной жизни. 301 день им удавалось избегать того, что обитает на поверхности, — тяжелое дыхание, грохочущие шаги, раздающиеся в ночи, внушают страх находящимся в хрупком убежище.
Все это время семье удавалось оставаться незамеченной. До сих пор. Сейчас их безопасность под угрозой… и нечто идет за ними.-Сэмпл: http://sendfile.su/1157752
Качество видео: HDRip
Формат видео: AVI
Видео: XVID, 720х304, 2,35:1, 23,976 кадра/сек, 1016 Кбит/сек
Аудио: AC-3, 48,0 КГц, 192 Кбит/сек, 2 канала Front: L R
MediaInfo
Формат : AVI
Формат/Информация : Audio Video Interleave
Размер файла : 721 Мбайт
Продолжительность : 1 ч. 22 м.
Общий поток : 1218 Кбит/сек
Программа кодирования : VirtualDubMod 1.5.10.2 (build 2540/release)
Библиотека кодирования : VirtualDub build 35390/release
Видео
Идентификатор : 0
Формат : MPEG-4 Visual
Профиль формата : Advanced Simple@L5
Параметр BVOP формата : 1
Параметр QPel формата : Нет
Параметр GMC формата : Без точки перехода
Параметр матрицы формата : Default (MPEG)
Идентификатор кодека : XVID
Идентификатор кодека/Подсказка : XviD
Продолжительность : 1 ч. 22 м.
Битрейт : 1016 Кбит/сек
Ширина : 720 пикселей
Высота : 304 пикселя
Соотношение сторон : 2,35:1
Частота кадров : 23,976 кадра/сек
Цветовое пространство : YUV
Субдискретизация насыщенности : 4:2:0
Битовая глубина : 8 бит
Тип развёртки : Прогрессивная
Метод сжатия : С потерями
Бит/(Пиксели*Кадры) : 0.194
Размер потока : 602 Мбайт (83%)
Библиотека кодирования : XviD 1.2.1 (UTC 2008-12-04)
Аудио
Идентификатор : 1
Формат : AC-3
Формат/Информация : Audio Coding 3
Расширение режима : CM (complete main)
Параметр Endianness формата : Big
Идентификатор кодека : 2000
Продолжительность : 1 ч. 22 м.
Вид битрейта : Постоянный
Битрейт : 192 Кбит/сек
Каналы : 2 канала
Расположение каналов : Front: L R
Частота : 48,0 КГц
Метод сжатия : С потерями
Размер потока : 114 Мбайт (16%)
Выравнивание : Разделение по промежуткам
Продолжительность промежутка : 42 мс. (1,00 видеокадр)
Время предзагрузки промежутка : 500 мс.
Скриншот c названием фильма Скриншоты
Скачать

Скачать торрент!

Как скачивать? · Что такое торрент? · Рейтинг и ограничения

Сайт не распространяет и не хранит электронные версии произведений, а лишь предоставляет доступ к создаваемому пользователями каталогу ссылок на торрент-файлы, которые содержат только списки хеш-сумм

[Профиль] [ЛС]
Показать сообщения:    
Ответить на тему

Текущее время: Сегодня 10:06

Часовой пояс: GMT + 4



Вы не можете начинать темы
Вы не можете отвечать на сообщения
Вы не можете редактировать свои сообщения
Вы не можете удалять свои сообщения
Вы не можете голосовать в опросах
Вы не можете прикреплять файлы к сообщениям
Вы не можете скачивать файлы