Безумный Макс: Дорога ярости / Mad Max: Fury Road (Джордж Миллер / George Miller) [2015, Австралия, США, боевик, фантастика, приключения, BDRemux 1080p] Dub + MVO (Омикрон) + AVO (Гаврилов) + VO (Матвеев) + VO (Есарев) + Sub Rus, Eng + Original Eng

Ответить на тему
 
Автор Сообщение

user ®

Стаж: 7 лет 7 месяцев

Сообщений: 20008

Пост Пост: #1 от 25-Сен-2015 04:54

[Цитировать]

Безумный Макс: Дорога ярости / Mad Max: Fury Road
Страна: Австралия, США
Жанр: боевик, фантастика, приключения
Год выпуска: 2015
Продолжительность: 02:00:23
Перевод: Профессиональный (дублированный)
Перевод 2: Профессиональный (многоголосый закадровый) [«Омикрон»]
Перевод 3: Авторский (одноголосый закадровый) Гаврилов
Перевод 4: Одноголосый закадровый Матвеев
Перевод 5: Одноголосый закадровый Есарев
Cубтитры: русские, английские
Оригинальная аудиодорожка: английский
Режиссер: Джордж Миллер / George Miller
В ролях: Том Харди, Шарлиз Терон, Николас Холт, Хью Кияс-Бёрн, Райли Кио, Роузи Хантингтон-Уайтли, Зои Кравиц, Эбби Ли, Кортни Итон, Нэйтан Джонс.
Описание: Преследуемый призраками беспокойного прошлого, Макс уверен, что лучший способ выжить - скитаться в одиночестве. Несмотря на это, он присоединяется к бунтарям, бегущим через всю пустыню на боевой фуре, под предводительством военачальника Фуриосы.Они пытаются сбежать из Цитадели, страдающей от тирании Несмертного Джо, у которого они забрали кое-что очень ценное. Разъярённый военачальник бросает все свои силы на погоню за мятежниками, ступая на дорогу войны - дорогу ярости.
Сэмпл: http://sendfile.su/1157023
Тип релиза: BDRemux 1080p
Контейнер: MKV
Видео: 1920x1080, 23.976 fps, MPEG-4 AVC, ~24882 kbbps avg
Аудио: Русский: DTS-HD MA, 7.1, 48 kHz, 5723 kbps, 24-bit (DTS Core: 5.1 / 48 kHz / 1509 kbps / 24-bit) [Дубляж]
Аудио 2: Русский: DTS-HD MA, 7.1, 48 kHz, 5863 kbps, 24-bit (DTS Core: 5.1 / 48 kHz / 1509 kbps / 24-bit) [Многоголосый закадровый «Омикрон»]
Аудио 3: Русский: AC3, 48000 Hz, 2/0 (L,R) ch, 160 kb/s [Гаврилов]
Аудио 4: Русский: DTS-HD MA, 7.1, 48 kHz, 5869 kbps, 24-bit (DTS Core: 5.1 / 48 kHz / 1509 kbps / 24-bit) [Матвеев]
Аудио 5: Русский: DTS-HD MA, 7.1, 48 kHz, 4747 kbps, 24-bit (DTS Core: 5.1 / 48 kHz / 1509 kbps / 24-bit) [Есарев]
Аудио 6: Английский: DTS-HD MA, 7.1, 48 kHz, 5692 kbps, 24-bit (DTS Core: 5.1 / 48 kHz / 1509 kbps / 24-bit)
Формат субтитров: softsub (SRT)
MediaInfo
Format : Matroska
Format version : Version 4 / Version 2
File size : 43.7 GiB
Duration : 2h 0mn
Overall bit rate mode : Variable
Overall bit rate : 51.9 Mbps
Encoded date : UTC 2015-09-21 21:42:52
Writing application : mkvmerge v8.3.0 ('Over the Horizon') 32bit
Writing library : libebml v1.3.1 + libmatroska v1.4.2
DURATION : 02:00:23.392000000
NUMBER_OF_FRAMES : 677193
NUMBER_OF_BYTES : 5293972372
_STATISTICS_WRITING_APP : mkvmerge v8.3.0 ('Over the Horizon') 32bit
_STATISTICS_WRITING_DATE_UTC : 2015-09-21 21:42:52
_STATISTICS_TAGS : BPS DURATION NUMBER_OF_FRAMES NUMBER_OF_BYTES
Video
ID : 1
Format : AVC
Format/Info : Advanced Video Codec
Format profile : High@L4.1
Format settings, CABAC : Yes
Format settings, ReFrames : 2 frames
Codec ID : V_MPEG4/ISO/AVC
Duration : 2h 0mn
Bit rate mode : Variable
Bit rate : 36.0 Mbps
Width : 1 920 pixels
Height : 1 080 pixels
Display aspect ratio : 16:9
Frame rate mode : Constant
Frame rate : 23.976 fps
Color space : YUV
Chroma subsampling : 4:2:0
Bit depth : 8 bits
Scan type : Progressive
Bits/(Pixel*Frame) : 0.724
Stream size : 30.3 GiB (69%)
Default : Yes
Forced : No
Audio #1
ID : 2
Format : DTS
Format/Info : Digital Theater Systems
Format profile : MA / Core
Codec ID : A_DTS
Duration : 2h 0mn
Bit rate mode : Variable
Bit rate : 3 268 Kbps / 1 510 Kbps
Channel(s) : 8 channels / 6 channels
Channel positions : Front: L C R, Side: L R, Back: L R, LFE / Front: L C R, Side: L R, LFE
Sampling rate : 48.0 KHz
Bit depth : 24 bits
Compression mode : Lossless / Lossy
Title : dts-hd ma, 48000 Hz, 7.1, 5723 kb/s (дубляж)
Language : Russian
Default : Yes
Forced : No
Audio #2
ID : 3
Format : DTS
Format/Info : Digital Theater Systems
Format profile : MA / Core
Codec ID : A_DTS
Duration : 2h 0mn
Bit rate mode : Variable
Bit rate : 3 283 Kbps / 1 510 Kbps
Channel(s) : 8 channels / 6 channels
Channel positions : Front: L C R, Side: L R, Back: L R, LFE / Front: L C R, Side: L R, LFE
Sampling rate : 48.0 KHz
Bit depth : 24 bits
Compression mode : Lossless / Lossy
Title : dts-hd ma, 48000 Hz, 7.1, 5863 kb/s (многоголосый перевод)
Language : Russian
Default : No
Forced : No
Audio #3
ID : 4
Format : AC-3
Format/Info : Audio Coding 3
Mode extension : CM (complete main)
Format settings, Endianness : Big
Codec ID : A_AC3
Duration : 2h 0mn
Bit rate mode : Constant
Bit rate : 160 Kbps
Channel(s) : 2 channels
Channel positions : Front: L R
Sampling rate : 48.0 KHz
Bit depth : 16 bits
Compression mode : Lossy
Stream size : 138 MiB (0%)
Title : ac3, 48000 Hz, 2 ch, 160 kb/s (Андрей Гаврилов)
Language : Russian
Default : No
Forced : No
Audio #4
ID : 5
Format : DTS
Format/Info : Digital Theater Systems
Format profile : MA / Core
Codec ID : A_DTS
Duration : 2h 0mn
Bit rate mode : Variable
Bit rate : 3 331 Kbps / 1 510 Kbps
Channel(s) : 8 channels / 6 channels
Channel positions : Front: L C R, Side: L R, Back: L R, LFE / Front: L C R, Side: L R, LFE
Sampling rate : 48.0 KHz
Bit depth : 24 bits
Compression mode : Lossless / Lossy
Title : dts-hd ma, 48000 Hz, 7.1, 5869 kb/s (А.Матвеев)
Language : Russian
Default : No
Forced : No
Audio #5
ID : 6
Format : DTS
Format/Info : Digital Theater Systems
Format profile : MA / Core
Codec ID : A_DTS
Duration : 2h 0mn
Bit rate mode : Variable
Bit rate : 1 597 Kbps / 1 510 Kbps
Channel(s) : 8 channels / 6 channels
Channel positions : Front: L C R, Side: L R, Back: L R, LFE / Front: L C R, Side: L R, LFE
Sampling rate : 48.0 KHz
Bit depth : 24 bits
Compression mode : Lossless / Lossy
Title : dts-hd ma, 48000 Hz, 7.1, 4747 kb/s (Д.Есарев)
Language : Russian
Default : No
Forced : No
Audio #6
ID : 7
Format : DTS
Format/Info : Digital Theater Systems
Format profile : MA / Core
Codec ID : A_DTS
Duration : 2h 0mn
Bit rate mode : Variable
Bit rate : 3 268 Kbps / 1 510 Kbps
Channel(s) : 8 channels / 6 channels
Channel positions : Front: L C R, Side: L R, Back: L R, LFE / Front: L C R, Side: L R, LFE
Sampling rate : 48.0 KHz
Bit depth : 24 bits
Compression mode : Lossless / Lossy
Title : dts-hd ma, 48000 Hz, 7.1, 5692 kb/s
Language : English
Default : No
Forced : No
Text #1
ID : 8
Format : UTF-8
Codec ID : S_TEXT/UTF8
Codec ID/Info : UTF-8 Plain Text
Title : форс.
Language : Russian
Default : Yes
Forced : No
Text #2
ID : 9
Format : UTF-8
Codec ID : S_TEXT/UTF8
Codec ID/Info : UTF-8 Plain Text
Language : Russian
Default : No
Forced : No
Text #3
ID : 10
Format : UTF-8
Codec ID : S_TEXT/UTF8
Codec ID/Info : UTF-8 Plain Text
Language : English
Default : No
Forced : No
Скриншоты
Скачать

Скачать торрент!

Как скачивать? · Что такое торрент? · Рейтинг и ограничения

Сайт не распространяет и не хранит электронные версии произведений, а лишь предоставляет доступ к создаваемому пользователями каталогу ссылок на торрент-файлы, которые содержат только списки хеш-сумм

[Профиль] [ЛС]
Показать сообщения:    
Ответить на тему

Текущее время: Сегодня 23:18

Часовой пояс: GMT + 4



Вы не можете начинать темы
Вы не можете отвечать на сообщения
Вы не можете редактировать свои сообщения
Вы не можете удалять свои сообщения
Вы не можете голосовать в опросах
Вы не можете прикреплять файлы к сообщениям
Вы не можете скачивать файлы