Призрак готов играть / Gambling Ghost Are Ready (Юнг Цзин-Чан / Yeung Jing-Chan) [1992, Тайвань, мистика, комедия, DVDRip] VO (Shaman)

Ответить на тему
 
Автор Сообщение

user ®

Стаж: 13 лет

Сообщений: 15071

Пост Пост: #1 от 24-Сен-2015 13:24

[Цитировать]

Призрак готов играть / Gambling Ghost Are Ready
Страна: Тайвань
Жанр: мистика, комедия
Год выпуска: 1992
Продолжительность: 01:32:16
Перевод: Одноголосый закадровый - Shaman
Cубтитры: английские (вшитые на исходнике)

Режиссер: Юнг Цзин-Чан / Yeung Jing-Chan
В ролях: Ву Ма, Марк Ченг, Ошима Юкари, Александр Ло, Ку Фенг
Описание: Девушка Сяо приехала из Тайваня, чтобы разыскать секретный дневник своего деда - Короля Азартных Игроков. Некоторое время назад один негодяй, известный под прозвищем Короля Азартных Игр подстроил смерть родителей Сяо и теперь её дедушка томится в преисподней под присмотром стражей, наблюдая за всем происходящим в мире людей. Грядёт большой Турнир Игроков и Сяо хочет принять в нём участие, обучившись секретам деда, но её тётушка сжигает дневник, поэтому сам дед, исполнившись решимости, бежит из преисподней на помощь внучке и её другу Красавцу Игроков.
Качество видео: [url=http://***/forum/viewtopic.php?t=5037919]DVDRip[/url]
Формат видео: AVI
Видео: 688x384 (1.79:1), 23.976 fps, XviD build 73 ~2054 kbps avg, 0.32 bit/pixel
Аудио: 48 kHz, AC3 Dolby Digital, 2/0 (L,R) ch, ~192 kbps


MediaInfo
Общее
Полное имя : H:\Gambling.Ghost.1992.dvdrip_[1.46]_[teko].avi
Формат : AVI
Формат/Информация : Audio Video Interleave
Размер файла : 1,45 Гбайт
Продолжительность : 1 ч. 32 м.
Общий поток : 2256 Кбит/сек
Программа кодирования : VirtualDubMod 1.5.10.3 | www.virtualdub-fr.org || (build 2550/release)
Библиотека кодирования : VirtualDubMod build 2550/release
Видео
Идентификатор : 0
Формат : MPEG-4 Visual
Профиль формата : Advanced Simple@L5
Параметр BVOP формата : 1
Параметр QPel формата : Нет
Параметр GMC формата : Без точки перехода
Параметр матрицы формата : Выборочная
Идентификатор кодека : XVID
Идентификатор кодека/Подсказка : XviD
Продолжительность : 1 ч. 32 м.
Битрейт : 2054 Кбит/сек
Ширина : 688 пикселей
Высота : 384 пикселя
Соотношение сторон : 16:9
Частота кадров : 23,976 кадра/сек
Цветовое пространство : YUV
Субдискретизация насыщенности : 4:2:0
Битовая глубина : 8 бит
Тип развёртки : Прогрессивная
Метод сжатия : С потерями
Бит/(Пиксели*Кадры) : 0.324
Размер потока : 1,32 Гбайт (91%)
Библиотека кодирования : XviD 73
Аудио
Идентификатор : 1
Формат : AC-3
Формат/Информация : Audio Coding 3
Расширение режима : CM (complete main)
Параметр Endianness формата : Big
Идентификатор кодека : 2000
Продолжительность : 1 ч. 32 м.
Вид битрейта : Постоянный
Битрейт : 192 Кбит/сек
Каналы : 2 канала
Расположение каналов : Front: L R
Частота : 48,0 КГц
Битовая глубина : 16 бит
Метод сжатия : С потерями
Размер потока : 127 Мбайт (9%)
Выравнивание : Разделение по промежуткам
Продолжительность промежутка : 42 мс. (1,00 видеокадр)
Время предзагрузки промежутка : 500 мс.
Скриншоты Релиз группы:
[url=http://***/forum/viewtopic.php?t=1677970] [/url]
--
Скачать

Скачать торрент! Призрак готов играть / Gambling Ghost Are Ready (Юнг Цзин-Чан / Yeung Jing-Chan) [1992, Тайвань, мистика, комедия, DVDRip] VO (Shaman)

Как скачивать? · Что такое торрент? · Рейтинг и ограничения

Сайт не распространяет и не хранит электронные версии произведений, а лишь предоставляет доступ к создаваемому пользователями каталогу ссылок на торрент-файлы, которые содержат только списки хеш-сумм

[Профиль] [ЛС]
Показать сообщения:    
Ответить на тему

Текущее время: Сегодня 18:01

Часовой пояс: GMT + 4



Вы не можете начинать темы
Вы не можете отвечать на сообщения
Вы не можете редактировать свои сообщения
Вы не можете удалять свои сообщения
Вы не можете голосовать в опросах
Вы не можете прикреплять файлы к сообщениям
Вы не можете скачивать файлы