Связь / Sumbandh (Шибу Митра / Shibu Mitra) [1982, Индия, Боевик, триллер, драма, мелодрама, LDRip] VO (Nastia)

Ответить на тему
 
Автор Сообщение

user ®

Стаж: 12 лет

Сообщений: 15092

Пост Пост: #1 от 24-Сен-2015 13:24

[Цитировать]

Связь / Sumbandh
Страна: Индия
Жанр: Боевик, триллер, драма, мелодрама
Год выпуска: 1982
Продолжительность: 02:06:24
Перевод: Одноголосый закадровый Nastia
Cубтитры: нет
Режиссер: Шибу Митра / Shibu Mitra
В ролях: Ашок Кумар, Винод Мехра, Рати Агнихотри, Теж Сапру, Дэвид Абрахам, Девен Верма, Мохан Чоти, Мадху Малхотра, Сундар Танеджа, Брахм Бхардвадж
Описание: Пракаш Кханна (Винод Мехра) - новый преподаватель колледжа, где учится Киран (Рати Агнихотри). Поначалу они мало симпатизируют друг другу, поскольку учебе Киран предпочитает музыку и танцы, однако со временем она проникается уважением к своему учителю. Конфликт Пракаша с другим студентом - Шакти Сингхом, приводит к тому, что Шакти выгоняют из колледжа, и он при первом удобном случае мстит Пракашу и Киран, сфотографировав их в весьма двусмысленных позах и распространив снимки повсюду. Оба вынуждены покинуть колледж, Киран опозорена, семья ее жениха отказывается от помолвки, и отец Киран, адвокат Матхур (Ашок Кумар), умоляет Пракаша жениться на ней. Несмотря на все перипетии, Киран и Пракаш на свадьбе выглядят счастливыми, но их проблемы только начались...
Доп. информация:
Озвучка: Nastia (Спасибо!)
Материалы: larisa_k (Спасибо!)
Перевод: akahea (Спасибо!)
Сэмпл: http://multi-up.com/1067689
Качество видео: LDRip
Формат видео: AVI
Видео: XviD build 46, 640x480 (1.33:1), 25 fps, 1205 kbps avg
Аудио: MPEG Layer 3, 44.100 kHz, 2/0 (L,R) ch, 128.00 kbps
MediaInfo
General
Complete name : F:\Svyaz.1982.VCDRip.Xvid.BWTorrents.avi
Format : AVI
Format/Info : Audio Video Interleave
File size : 1.19 GiB
Duration : 2h 6mn
Overall bit rate : 1 343 Kbps
Writing application : VirtualDubMod 1.5.10.2 (build 2540/release)
Writing library : VirtualDub build 35491/release
Video
ID : 0
Format : MPEG-4 Visual
Format profile : Simple@L3
Format settings, BVOP : No
Format settings, QPel : No
Format settings, GMC : No warppoints
Format settings, Matrix : Default (H.263)
Codec ID : XVID
Codec ID/Hint : XviD
Duration : 2h 6mn
Bit rate : 1 205 Kbps
Width : 640 pixels
Height : 480 pixels
Display aspect ratio : 4/3
Frame rate : 25.000 fps
Resolution : 24 bits
Colorimetry : 4:2:0
Scan type : Progressive
Bits/(Pixel*Frame) : 0.157
Stream size : 1.06 GiB (90%)
Writing library : XviD 1.1.2 (UTC 2006-11-01)
Audio
ID : 1
Format : MPEG Audio
Format version : Version 1
Format profile : Layer 3
Codec ID : 55
Codec ID/Hint : MP3
Duration : 2h 6mn
Bit rate mode : Constant
Bit rate : 128 Kbps
Channel(s) : 2 channels
Sampling rate : 44.1 KHz
Resolution : 16 bits
Stream size : 116 MiB (10%)
Alignment : Split accross interleaves
Interleave, duration : 40 ms (1.00 video frame)
Interleave, preload duration : 500 ms
Скриншоты
Скачать

Скачать торрент! Связь / Sumbandh (Шибу Митра / Shibu Mitra) [1982, Индия, Боевик, триллер, драма, мелодрама, LDRip] VO (Nastia)

Как скачивать? · Что такое торрент? · Рейтинг и ограничения

Сайт не распространяет и не хранит электронные версии произведений, а лишь предоставляет доступ к создаваемому пользователями каталогу ссылок на торрент-файлы, которые содержат только списки хеш-сумм

[Профиль] [ЛС]
Показать сообщения:    
Ответить на тему

Текущее время: Сегодня 18:15

Часовой пояс: GMT + 4



Вы не можете начинать темы
Вы не можете отвечать на сообщения
Вы не можете редактировать свои сообщения
Вы не можете удалять свои сообщения
Вы не можете голосовать в опросах
Вы не можете прикреплять файлы к сообщениям
Вы не можете скачивать файлы