Кровососущие подонки / Bloodsucking Bastards (Брайан Джеймс О’Коннелл / Brian James O\'Connell) [2015, США, ужасы, комедия, WEB-DLRip] DVO (den904 & DeadSno)

Ответить на тему
 
Автор Сообщение

user ®

Стаж: 7 лет 7 месяцев

Сообщений: 20008

Пост Пост: #1 от 24-Сен-2015 13:24

[Цитировать]

Кровососущие подонки / Bloodsucking Bastards
Страна: США
Жанр: ужасы, комедия
Год выпуска: 2015
Продолжительность: 01:24:03
Перевод: Любительский (двухголосый закадровый) den904 & DeadSno
Cубтитры: нет
Оригинальная аудиодорожка: нет
Режиссер: Брайан Джеймс О’Коннелл / Brian James O'Connell
В ролях: Фрэн Кранц, Педро Паскаль, Джои Керн, Джоэль Мюррей, Эмма Фитцпатрик, Ивет Йэтс, Джастин Уэр, Маршалл Такер, Дэвид Ф. Парк
Описание: Эван уже давно работает в офисе и ждет повышения. Однако его босс отдает эту должность старому врагу Эвана — Максу. Вскоре в офисе начинают происходить кровавые изменения, что приведет к неожиданному финалу.

Сэмпл: http://multi-up.com/1067650
Качество видео: WEB-DLRip
Формат видео: AVI
Видео: Xvid 720x320 23.98fps 1 960 Kbps
Аудио: Dolby AC3 48000Hz 6ch 384kbps
MediaInfo
Format : AVI
Format/Info : Audio Video Interleave
File size : 1.38 GiB
Duration : 1h 24mn
Overall bit rate : 2 353 Kbps
Video
ID : 0
Format : MPEG-4 Visual
Format profile : AdvancedSimple@L5
Format settings, BVOP : Yes
Format settings, QPel : No
Format settings, GMC : No warppoints
Format settings, Matrix : Default (H.263)
Codec ID : XVID
Codec ID/Hint : XviD
Duration : 1h 24mn
Bit rate : 1 960 Kbps
Width : 720 pixels
Height : 320 pixels
Display aspect ratio : 2.25:1
Frame rate : 23.976 fps
Resolution : 24 bits
Colorimetry : 4:2:0
Scan type : Progressive
Bits/(Pixel*Frame) : 0.355
Stream size : 1.15 GiB (83%)
Writing library : XviD 73
Audio
ID : 1
Format : AC-3
Format/Info : Audio Coding 3
Codec ID : 2000
Duration : 1h 24mn
Bit rate mode : Constant
Bit rate : 384 Kbps
Channel(s) : 6 channels
Channel positions : Front: L C R, Surround: L R, LFE
Sampling rate : 48.0 KHz
Stream size : 231 MiB (16%)
Alignment : Split accross interleaves
Interleave, duration : 42 ms (1.00 video frame)
Interleave, preload duration : 500 ms
Скриншот c названием фильма Скриншоты
Скачать

Скачать торрент!

Как скачивать? · Что такое торрент? · Рейтинг и ограничения

Сайт не распространяет и не хранит электронные версии произведений, а лишь предоставляет доступ к создаваемому пользователями каталогу ссылок на торрент-файлы, которые содержат только списки хеш-сумм

[Профиль] [ЛС]
Показать сообщения:    
Ответить на тему

Текущее время: Сегодня 07:03

Часовой пояс: GMT + 4



Вы не можете начинать темы
Вы не можете отвечать на сообщения
Вы не можете редактировать свои сообщения
Вы не можете удалять свои сообщения
Вы не можете голосовать в опросах
Вы не можете прикреплять файлы к сообщениям
Вы не можете скачивать файлы