Первоклассница (Илья Фрэз) [1948, Детский, семейный, приключения, DVDRip]

Ответить на тему
 
Автор Сообщение

user ®

Стаж: 7 лет 7 месяцев

Сообщений: 20008

Пост Пост: #1 от 24-Сен-2015 04:09

[Цитировать]

Первоклассница- -Жанр: Детский, семейный, приключения
Год выпуска: 1948
Продолжительность: 01:07:31
-Режиссёр: Илья Фрэз
Сценарий: Евгений Шварц
-В ролях: Тамара Макарова, Татьяна Барышева, Наталья Защипина, Кира Головко, Валентина Кибардина, Степан Каюков, Мария Яроцкая, Елена Егорова, Кира Иванова, Елена Таранова, Тамара Вихман, Игорь Ерошкин, Елена Максимова, Георгий Милляр, Ростислав Плятт, Владимир Уральский и др.-Описание: Замечательный детский фильм о том, как благодаря опытной учительнице и подружкам-одноклассницам, Маруся Орлова превратилась из дошкольницы в первоклассницу, а потом ещё и в дисциплинированную ученицу, отлично закончившую первый класс...-Качество видео: DVDRip - [url=http://***/forum/viewtopic.php?t=4946640]Первоклассница (Илья Фрэз) [1948, детский, семейный, приключения, DVD5][/url]Формат видео: AVI-Видео: XviD MPEG-4, 720x544, 4:3, 25.000 fps, ~1926 kbps avg, 0.197 bit/pixel
Аудио: AC-3 Dolby Digital, CBR 384 kbps 2 ch, Front: L R, 48.0 KHz
- MediaInfo
ОбщееПолное имя : S:\Pervoklassnitsa_1948_DVDRip_[***].aviФормат : AVIФормат/Информация : Audio Video InterleaveРазмер файла : 1,09 ГбайтПродолжительность : 1 ч. 7 м.Общий поток : 2317 Кбит/секПрограмма кодирования : VirtualDubModRus 1.5.10.2 (build 2542/release)Библиотека кодирования : VirtualDubMod build 2542/release
ВидеоИдентификатор : 0Формат : MPEG-4 VisualПрофиль формата : Advanced Simple@L5Параметр BVOP формата : 1Параметр QPel формата : НетПараметр GMC формата : Без точки переходаПараметр матрицы формата : ВыборочнаяИдентификатор кодека : DX50Идентификатор кодека/Подсказка : DivX 5Продолжительность : 1 ч. 7 м.Битрейт : 1926 Кбит/секШирина : 720 пикселейВысота : 544 пикселяСоотношение сторон : 4:3Частота кадров : 25,000 кадров/секЦветовое пространство : YUVСубдискретизация насыщенности : 4:2:0Битовая глубина : 8 битТип развёртки : ПрогрессивнаяМетод сжатия : С потерямиБит/(Пиксели*Кадры) : 0.197Размер потока : 930 Мбайт (83%)Библиотека кодирования : XviD 64
АудиоИдентификатор : 1Формат : AC-3Формат/Информация : Audio Coding 3Расширение режима : CM (complete main)Параметр Endianness формата : BigИдентификатор кодека : 2000Продолжительность : 1 ч. 7 м.Вид битрейта : ПостоянныйБитрейт : 384 Кбит/секКаналы : 2 каналаРасположение каналов : Front: L RЧастота : 48,0 КГцБитовая глубина : 16 битМетод сжатия : С потерямиРазмер потока : 185 Мбайт (17%)Выравнивание : Разделение по промежуткамПродолжительность промежутка : 96 мс. (2,40 видеокадра)Время предзагрузки промежутка : 96 мс.
Скриншот c названием фильма Скриншоты Время раздачи - по возможности.
Скачать

Скачать торрент!

Как скачивать? · Что такое торрент? · Рейтинг и ограничения

Сайт не распространяет и не хранит электронные версии произведений, а лишь предоставляет доступ к создаваемому пользователями каталогу ссылок на торрент-файлы, которые содержат только списки хеш-сумм

[Профиль] [ЛС]
Показать сообщения:    
Ответить на тему

Текущее время: Сегодня 08:28

Часовой пояс: GMT + 4



Вы не можете начинать темы
Вы не можете отвечать на сообщения
Вы не можете редактировать свои сообщения
Вы не можете удалять свои сообщения
Вы не можете голосовать в опросах
Вы не можете прикреплять файлы к сообщениям
Вы не можете скачивать файлы