Моя плоть, моя кровь / Moja krew (Марчин Врона / Marcin Wrona) [2009, Польша, мелодрама, HDTV 1080i] DVO (НТВ+) + Original Pol + Rus sub

Ответить на тему
 
Автор Сообщение

user ®

Стаж: 7 лет 7 месяцев

Сообщений: 20008

Пост Пост: #1 от 23-Сен-2015 18:51

[Цитировать]

Моя плоть, моя кровь / Moja krew- Страна: Польша
Студия: Opus Film, Polski Instytut Sztuki Filmowej, Telewizja Polska
Жанр: мелодрама
Год выпуска: 2009
Продолжительность: 01:31:34-Перевод: Профессиональный (двухголосый закадровый) НТВ+
Cубтитры: русские (PGS, SRT)
Оригинальная аудиодорожка: английский-Режиссер: Марчин Врона / Marcin Wrona
В ролях: Эрик Любош, Луу Де Ли, Войцех Зилински, Марек Петровски, Кшиштоф Кольбергер, Йоанна Покойска, Нгок Хай Буи, Магда Шеплик, Моника Обара, Петр Сенкевич- | Релиз: -Описание: Варшава. Карьера Игоря, талантливого профессионального боксера, рушится после тяжелейшей травмы головы. Узнав, что он обречен, Игорь решает оставить свой след на земле. Ему нужна женщина, готовая родить от него ребенка. И он находит нелегальную иммигрантку из Вьетнама, которой совершенно нечего терять…-Доп. информация:
- За исходную русскую [url=http://***/forum/viewtopic.php?t=3535812]дорожку[/url] спасибо RUSIKtheBest87. Дорожка оказалась "дутой", потому собрана в стерео.
- За [url=http://***/forum/viewtopic.php?t=3052014]субтитры[/url] спасибо MMManja.
- За польский [url=http://***/forum/viewtopic.php?t=3935432]DTS[/url] c DVD спасибо Нордер. Дорожка подогнана без пережатия.
- Запись фильма со спутниковой трансляции и работа со звуком - [url=http://***/forum/profile.php?mode=viewprofile&u=1793838]xfiles[/url].
-Семпл: http://sendfile.su/1156766-Тип релиза: HDTV 1080i
Контейнер: TS
Видео: 1920x1080 (16:9), 25.000 fps, AVC, ~7363 kbps, 0.142 bits/pixel
Аудио 1: Русский, 48.0 KHz, MPEG-1 Audio layer 2, 2 ch, 192 kbps
Аудио 2: Polish, 48.0 KHz, AC3, 2 ch, 192 kbps - Broadcast
Аудио 3: Polish, 48.0 KHz, DTS, 6 ch, 755 kbps - DVD
MediaInfo
GeneralID : 1 (0x1)Complete name : Moja krew 2009 TVP HD 1080i.rus.pol.tsFormat : MPEG-TSFile size : 5.73 GiBDuration : 1h 31mnOverall bit rate mode : VariableOverall bit rate : 8 956 KbpsMaximum Overall bit rate : 35.5 Mbps
VideoID : 4113 (0x1011)Menu ID : 1 (0x1)Format : AVCFormat/Info : Advanced Video CodecFormat profile : High@L4Format settings, CABAC : YesFormat settings, ReFrames : 4 framesFormat settings, GOP : M=4, N=32Codec ID : 27Duration : 1h 31mnBit rate mode : VariableBit rate : 7 363 KbpsMaximum bit rate : 40.0 MbpsWidth : 1 920 pixelsHeight : 1 080 pixelsDisplay aspect ratio : 16:9Frame rate : 25.000 fpsColor space : YUVChroma subsampling : 4:2:0Bit depth : 8 bitsScan type : InterlacedScan order : Top Field FirstBits/(Pixel*Frame) : 0.142Stream size : 4.71 GiB (82%)Language : PolishColor range : LimitedColor primaries : BT.709Transfer characteristics : BT.709Matrix coefficients : BT.709
Audio #1ID : 4352 (0x1100)Menu ID : 1 (0x1)Format : AC-3Format/Info : Audio Coding 3Mode extension : CM (complete main)Format settings, Endianness : BigCodec ID : 129Duration : 1h 31mnBit rate mode : ConstantBit rate : 192 KbpsChannel(s) : 2 channelsChannel positions : Front: L RSampling rate : 48.0 KHzCompression mode : LossyStream size : 126 MiB (2%)Language : Russian
Audio #2ID : 4353 (0x1101)Menu ID : 1 (0x1)Format : AC-3Format/Info : Audio Coding 3Mode extension : CM (complete main)Format settings, Endianness : BigCodec ID : 129Duration : 1h 31mnBit rate mode : ConstantBit rate : 192 KbpsChannel(s) : 2 channelsChannel positions : Front: L RSampling rate : 48.0 KHzCompression mode : LossyStream size : 126 MiB (2%)Language : Polish
Audio #3ID : 4354 (0x1102)Menu ID : 1 (0x1)Format : DTSFormat/Info : Digital Theater SystemsMode : 16Format settings, Endianness : BigCodec ID : 130Duration : 1h 31mnBit rate mode : ConstantBit rate : 755 KbpsChannel(s) : 6 channelsChannel positions : Front: L C R, Side: L R, LFESampling rate : 48.0 KHzBit depth : 24 bitsCompression mode : LossyStream size : 494 MiB (8%)Language : Polish
TextID : 4608 (0x1200)Menu ID : 1 (0x1)Format : PGSCodec ID : 144Language : Russian
Скриншоты
Скачать

Скачать торрент!

Как скачивать? · Что такое торрент? · Рейтинг и ограничения

Сайт не распространяет и не хранит электронные версии произведений, а лишь предоставляет доступ к создаваемому пользователями каталогу ссылок на торрент-файлы, которые содержат только списки хеш-сумм

[Профиль] [ЛС]
Показать сообщения:    
Ответить на тему

Текущее время: Сегодня 21:56

Часовой пояс: GMT + 4



Вы не можете начинать темы
Вы не можете отвечать на сообщения
Вы не можете редактировать свои сообщения
Вы не можете удалять свои сообщения
Вы не можете голосовать в опросах
Вы не можете прикреплять файлы к сообщениям
Вы не можете скачивать файлы