Остановившие время / Clockstoppers (Джонатан Фрейкс / Jonathan Frakes) [2002, США, фантастика, приключения, WEB-DL 720p] 3x MVO + DVO + Sub Eng + Original Eng

Ответить на тему
 
Автор Сообщение

user ®

Стаж: 7 лет 7 месяцев

Сообщений: 20008

Пост Пост: #1 от 23-Сен-2015 18:51

[Цитировать]

Остановившие время / Clockstoppers
Страна: США
Студия: Paramount Pictures, Nickelodeon Movies, Valhalla Motion Pictures
Жанр: фантастика, приключения
Год выпуска: 2002
Продолжительность: 01:33:57
Перевод 1: Профессиональный (многоголосый закадровый)
Перевод 2: Профессиональный (многоголосый закадровый) Paramount Channel
Перевод 3: Профессиональный (двухголосый закадровый) Премьер Мультимедия
Перевод 4: Профессиональный (многоголосый закадровый) ТВ3
Cубтитры: английские
Оригинальная аудиодорожка: английский
Режиссер: Джонатан Фрейкс / Jonathan Frakes
В ролях: Джесси Брэдфорд, Френч Стюарт, Паула Гарсес, Майкл Бин, Робин Томас Гроссман, Гарикайи Мутамбирва и др.
Описание: Гepoй картины, Зак Гиббз (Джесси Брэдфорд -"Фанатка, Мальчишник в Техасе") - самый обыкновенный тинэйджер, в руки которого внезапно попадает совершенно необыкновенная вещь. Зак находит странный механизм, напоминающий ручные часы, который в буквальном смысле слова - может останавливать время! Для 3aка - это всего лишь безделушка, которая может произвести впечатление на новенькую красавицу (Пола Гарсес -"Крутой и цыпочки, Блондинка в шоколаде") из его колледжа. Но есть люди, которые не только знают об этой удивительной вещице, но и страстно жаждут её заполучить - ученый-неудачник (Френч Стюарт - "Сломанная стрела") и его зловещий босс (Майкл Бин - "Терминатор"). Парочка зловещего босса начинает охоту за Заком и его девушкой, которые, в свою очередь, оказываются втянутыми в умопомрачительную битву со временем.
II Сэмпл II IMDB II
Доп. информация:
За шестиканалку спасибо chopper887
За дороги Премьер Мультимедия и Paramount Channel спасибо slavikevro
За дорогу ТВ3 спасибо Justin_Quayle
Тип релиза: WEB-DL 720p
Контейнер: MKV
Видео: AVC / 1280x7200 / 16:9 / 23.976fps / Bit rate 3953Kbps
Аудио 1: AC3 / 48.0 KHz / 6ch. / 384kbps / rus / mvo
Аудио 2: AC3 / 48.0 KHz / 2ch. / 192kbps / rus / mvo / Paramount Channel
Аудио 3: AC3 / 48.0 KHz / 2ch. / 192kbps / rus / dvo / Премьер Мультимедия
Аудио 4: AC3 / 48.0 KHz / 2ch. / 192kbps / rus / mvo / ТВ3
Аудио 5: AC3 / 48.0 KHz / 6ch. / 384kbps / eng
Формат субтитров: softsub (SRT)
MediaInfo
Общее
Уникальный идентификатор : 182159007834528228942436666425599626505 (0x890A8C7D0838D3E4A363F99EC7AC8D09)
Полное имя : G:\!!!_torrent\Clockstoppers.2002.WEB-DL.720p_by_vedigo.mkv
Формат : Matroska
Версия формата : Version 4 / Version 2
Размер файла : 3,55 Гбайт
Продолжительность : 1 ч. 33 м.
Общий поток : 5405 Кбит/сек
Название фильма : Clockstoppers.2002.WEB-DL.720p_by_vedigo
Дата кодирования : UTC 2015-09-22 07:18:12
Программа кодирования : mkvmerge v8.4.0 ('A better way to fly') 64bit
Библиотека кодирования : libebml v1.3.1 + libmatroska v1.4.2
DURATION : 01:33:57.824000000
NUMBER_OF_FRAMES : 176182
NUMBER_OF_BYTES : 270615552
_STATISTICS_WRITING_APP : mkvmerge v8.4.0 ('A better way to fly') 64bit
_STATISTICS_WRITING_DATE_UTC : 2015-09-22 07:18:12
_STATISTICS_TAGS : BPS DURATION NUMBER_OF_FRAMES NUMBER_OF_BYTES
Видео
Идентификатор : 1
Формат : AVC
Формат/Информация : Advanced Video Codec
Профиль формата : High@L3.1
Параметр CABAC формата : Нет
Параметр ReFrames формата : 2 кадра
Идентификатор кодека : V_MPEG4/ISO/AVC
Продолжительность : 1 ч. 33 м.
Битрейт : 3953 Кбит/сек
Ширина : 1280 пикселей
Высота : 720 пикселей
Соотношение сторон : 16:9
Режим частоты кадров : Постоянный
Частота кадров : 23,976 кадра/сек
Цветовое пространство : YUV
Субдискретизация насыщенности : 4:2:0
Битовая глубина : 8 бит
Тип развёртки : Прогрессивная
Бит/(Пиксели*Кадры) : 0.179
Размер потока : 2,59 Гбайт (73%)
Заголовок : Clockstoppers.2002.WEB-DL.720p_by_vedigo
Язык : Russian
Default : Нет
Forced : Нет
Цветовой диапазон : Limited
Основные цвета : BT.709
Характеристики трансфера : BT.709
Коэффициенты матрицы : BT.709
Аудио #1
Идентификатор : 2
Формат : AC-3
Формат/Информация : Audio Coding 3
Расширение режима : CM (complete main)
Параметр Endianness формата : Big
Идентификатор кодека : A_AC3
Продолжительность : 1 ч. 33 м.
Вид битрейта : Постоянный
Битрейт : 384 Кбит/сек
Каналы : 6 каналов
Расположение каналов : Front: L C R, Side: L R, LFE
Частота : 48,0 КГц
Метод сжатия : С потерями
Размер потока : 258 Мбайт (7%)
Заголовок : MVO
Язык : Russian
Default : Да
Forced : Нет
Аудио #2
Идентификатор : 3
Формат : AC-3
Формат/Информация : Audio Coding 3
Расширение режима : CM (complete main)
Параметр Endianness формата : Big
Идентификатор кодека : A_AC3
Продолжительность : 1 ч. 33 м.
Вид битрейта : Постоянный
Битрейт : 192 Кбит/сек
Каналы : 2 канала
Расположение каналов : Front: L R
Частота : 48,0 КГц
Метод сжатия : С потерями
Размер потока : 129 Мбайт (4%)
Заголовок : MVO @ Paramount Channel
Язык : Russian
Default : Нет
Forced : Нет
Аудио #3
Идентификатор : 4
Формат : AC-3
Формат/Информация : Audio Coding 3
Расширение режима : CM (complete main)
Параметр Endianness формата : Big
Идентификатор кодека : A_AC3
Продолжительность : 1 ч. 33 м.
Вид битрейта : Постоянный
Битрейт : 192 Кбит/сек
Каналы : 2 канала
Расположение каналов : Front: L R
Частота : 48,0 КГц
Метод сжатия : С потерями
Размер потока : 129 Мбайт (4%)
Заголовок : DVO @ Премьер Мультимедия
Язык : Russian
Default : Нет
Forced : Нет
Аудио #4
Идентификатор : 5
Формат : AC-3
Формат/Информация : Audio Coding 3
Расширение режима : CM (complete main)
Параметр Endianness формата : Big
Идентификатор кодека : A_AC3
Продолжительность : 1 ч. 33 м.
Вид битрейта : Постоянный
Битрейт : 192 Кбит/сек
Каналы : 2 канала
Расположение каналов : Front: L R
Частота : 48,0 КГц
Метод сжатия : С потерями
Размер потока : 129 Мбайт (4%)
Заголовок : MVO @ TV3
Язык : Russian
Default : Нет
Forced : Нет
Аудио #5
Идентификатор : 6
Формат : AC-3
Формат/Информация : Audio Coding 3
Расширение режима : CM (complete main)
Параметр Endianness формата : Big
Идентификатор кодека : A_AC3
Продолжительность : 1 ч. 33 м.
Вид битрейта : Постоянный
Битрейт : 384 Кбит/сек
Каналы : 6 каналов
Расположение каналов : Front: L C R, Side: L R, LFE
Частота : 48,0 КГц
Метод сжатия : С потерями
Размер потока : 258 Мбайт (7%)
Заголовок : original
Язык : English
Default : Нет
Forced : Нет
Текст
Идентификатор : 7
Формат : UTF-8
Идентификатор кодека : S_TEXT/UTF8
Идентификатор кодека/Информация : UTF-8 Plain Text
Заголовок : subtitle eng
Язык : English
Default : Нет
Forced : Нет
Меню
00:00:00.000 : en:"I Need A Vacation"
00:04:16.000 : en:Down Payment
00:09:30.000 : en:The New Girl
00:12:22.000 : en:Father/Son Conflict
00:17:12.000 : en:48 Hour Deadline
00:22:19.000 : en:Hypertime Engaged
00:32:44.000 : en:Spin Off
00:40:49.000 : en:Second Chance Man
00:44:39.000 : en:"Gimme the Watch"
00:50:37.000 : en:Escape From The Hospital
00:55:03.000 : en:Tracking Down Dr. Gibbs
01:02:51.000 : en:Kidnapped
01:09:46.000 : en:QT Laboratories
01:16:26.000 : en:Molecular Stabilizer
01:24:27.000 : en:Zak's Plan Works
01:27:21.000 : en:Back Home
Скриншоты
Скачать

Скачать торрент!

Как скачивать? · Что такое торрент? · Рейтинг и ограничения

Сайт не распространяет и не хранит электронные версии произведений, а лишь предоставляет доступ к создаваемому пользователями каталогу ссылок на торрент-файлы, которые содержат только списки хеш-сумм

[Профиль] [ЛС]
Показать сообщения:    
Ответить на тему

Текущее время: Сегодня 21:56

Часовой пояс: GMT + 4



Вы не можете начинать темы
Вы не можете отвечать на сообщения
Вы не можете редактировать свои сообщения
Вы не можете удалять свои сообщения
Вы не можете голосовать в опросах
Вы не можете прикреплять файлы к сообщениям
Вы не можете скачивать файлы