Манглхорн / Manglehorn (Дэвид Гордон Грин / David Gordon Green) [2014, США, драма, BDRip 720p] MVO + Sub Eng + Original Eng

Ответить на тему
 
Автор Сообщение

user ®

Стаж: 7 лет 7 месяцев

Сообщений: 20008

Пост Пост: #1 от 23-Сен-2015 18:51

[Цитировать]

Манглхорн / Manglehorn
Страна: США
Студия: Worldview Entertainment, Dreambridge Films, Muskat Filmed Properties
Жанр: драма
Год выпуска: 2014
Продолжительность: 01:37:25
Перевод: Профессиональный (многоголосый закадровый)
Cубтитры: английские
Оригинальная аудиодорожка: английский
Режиссер: Дэвид Гордон Грин / David Gordon Green
В ролях: Аль Пачино, Холли Хантер, Крис Мессина, Хармони Корин, Натали Вайлмон, Джун Гриффин Гарсиа, Ребекка Франкьоне, Лара Шах, Тед Фергюсон, Кристин Миллер Уайт
Описание: Эй Джей Манглхорн, на первый взгляд, ничем не примечательный, обычный, стареющий человек, тихо живущий в маленьком городе: он нянчится со своим котом, каждую пятницу ходит в банк, всегда обедает в одном и том же заведении. Но у этого старика богатое прошлое: в молодости он был преступником, и однажды должен был сделать главный выбор в жизни — между любовью женщины его мечты и «большой работой»…

Тип релиза: BDRip 720p
Контейнер: MKV
Видео: MPEG-4 AVC, 4718 Кбит/с, 1280x538, 23,976 fps
Аудио: Rus, AC3, 448 kb/s (6 ch), 48 kHz
Аудио 2: Eng, AC3, 640 kb/s (6 ch), 48 kHz
Формат субтитров: softsub (SRT)
MediaInfo
x264 [info]: frame I:976 Avg QP:15.80 size: 95493
x264 [info]: frame P:25595 Avg QP:17.21 size: 46325
x264 [info]: frame B:113602 Avg QP:18.11 size: 19839
Format : Matroska
Format version : Version 4 / Version 2
File size : 4.03 GiB
Duration : 1h 37mn
Overall bit rate : 5 924 Kbps
Movie name : Манглхорн. (Tonik)
Encoded date : UTC 2015-09-22 07:21:49
Writing application : mkvmerge v7.1.0 ('Good Love') 64bit built on Jul 27 2014 13:06:55
Writing library : libebml v1.3.0 + libmatroska v1.4.1
_STATISTICS_WRITING_APP : mkvmerge v7.1.0 ('Good Love') 64bit built on Jul 27 2014 13:06:55
_STATISTICS_WRITING_DATE_UTC : 2015-09-22 07:21:49
_STATISTICS_TAGS : BPS DURATION NUMBER_OF_FRAMES NUMBER_OF_BYTES
DURATION : 01:35:55.875000000
NUMBER_OF_FRAMES : 2150
NUMBER_OF_BYTES : 55441
Video
ID : 1
Format : AVC
Format/Info : Advanced Video Codec
Format profile : High@L4.1
Format settings, CABAC : Yes
Format settings, ReFrames : 12 frames
Codec ID : V_MPEG4/ISO/AVC
Duration : 1h 37mn
Bit rate : 4 718 Kbps
Width : 1 280 pixels
Height : 538 pixels
Display aspect ratio : 2.40:1
Frame rate mode : Constant
Frame rate : 23.976 fps
Color space : YUV
Chroma subsampling : 4:2:0
Bit depth : 8 bits
Scan type : Progressive
Bits/(Pixel*Frame) : 0.286
Stream size : 3.21 GiB (80%)
Title : ENCODE CRiME
Writing library : x264 core 148 r2597 e86f3a1
Encoding settings : cabac=1 / ref=12 / deblock=1:-3:-3 / analyse=0x3:0x133 / me=umh / subme=10 / psy=1 / psy_rd=1.02:0.00 / mixed_ref=1 / me_range=32 / chroma_me=1 / trellis=2 / 8x8dct=1 / cqm=0 / deadzone=21,11 / fast_pskip=0 / chroma_qp_offset=-2 / threads=6 / lookahead_threads=1 / sliced_threads=0 / nr=0 / decimate=0 / interlaced=0 / bluray_compat=0 / constrained_intra=0 / bframes=10 / b_pyramid=2 / b_adapt=2 / b_bias=0 / direct=3 / weightb=1 / open_gop=0 / weightp=2 / keyint=250 / keyint_min=24 / scenecut=40 / intra_refresh=0 / rc_lookahead=60 / rc=crf / mbtree=0 / crf=17.6 / qcomp=0.67 / qpmin=0 / qpmax=69 / qpstep=4 / vbv_maxrate=62500 / vbv_bufsize=78125 / crf_max=0.0 / nal_hrd=none / filler=0 / ip_ratio=1.25 / pb_ratio=1.15 / aq=3:0.75 / zones=0,251,crf=17/1065,1418,crf=16.5/15722,15871,crf=16.5/18354,19413,crf=16.5/19571,19751,crf=16.5/20806,20917,crf=16.5/21320,21432,crf=16.5/25009,27283,crf=16.5/59068,59156,crf=16.5/71489,71713,crf=16.5/76195,76273,crf=16.5/78053,78159,crf=16.5/91786,91965,crf=16.5/99022,99422,crf=16.5/134246,140173,crf=22
Language : English
Default : Yes
Forced : No
_STATISTICS_WRITING_APP : mkvmerge v7.1.0 ('Good Love') 64bit built on Jul 27 2014 13:06:55
_STATISTICS_WRITING_DATE_UTC : 2015-09-22 07:21:49
_STATISTICS_TAGS : BPS DURATION NUMBER_OF_FRAMES NUMBER_OF_BYTES
DURATION : 01:37:26.383000000
NUMBER_OF_FRAMES : 140173
NUMBER_OF_BYTES : 3532658826
Audio #1
ID : 2
Format : AC-3
Format/Info : Audio Coding 3
Mode extension : CM (complete main)
Format settings, Endianness : Big
Codec ID : A_AC3
Duration : 1h 37mn
Bit rate mode : Constant
Bit rate : 448 Kbps
Channel(s) : 6 channels
Channel positions : Front: L C R, Side: L R, LFE
Sampling rate : 48.0 KHz
Bit depth : 16 bits
Compression mode : Lossy
Stream size : 312 MiB (8%)
Language : Russian
Default : Yes
Forced : No
Audio #2
ID : 3
Format : AC-3
Format/Info : Audio Coding 3
Mode extension : CM (complete main)
Format settings, Endianness : Big
Codec ID : A_AC3
Duration : 1h 37mn
Bit rate mode : Constant
Bit rate : 640 Kbps
Channel(s) : 6 channels
Channel positions : Front: L C R, Side: L R, LFE
Sampling rate : 48.0 KHz
Bit depth : 16 bits
Compression mode : Lossy
Stream size : 446 MiB (11%)
Language : English
Default : No
Forced : No
Text
ID : 4
Format : UTF-8
Codec ID : S_TEXT/UTF8
Codec ID/Info : UTF-8 Plain Text
Language : English
Default : No
Forced : No
Menu
00:00:00.000 : en:Chapter 01
00:07:20.773 : en:Chapter 02
00:17:09.778 : en:Chapter 03
00:27:53.838 : en:Chapter 04
00:36:16.799 : en:Chapter 05
00:43:43.621 : en:Chapter 06
00:50:59.765 : en:Chapter 07
00:57:38.496 : en:Chapter 08
01:09:00.386 : en:Chapter 09
01:18:34.543 : en:Chapter 10
01:25:18.321 : en:Chapter 11
01:33:19.427 : en:Chapter 12
Скриншоты
Скачать

Скачать торрент!

Как скачивать? · Что такое торрент? · Рейтинг и ограничения

Сайт не распространяет и не хранит электронные версии произведений, а лишь предоставляет доступ к создаваемому пользователями каталогу ссылок на торрент-файлы, которые содержат только списки хеш-сумм

[Профиль] [ЛС]
Показать сообщения:    
Ответить на тему

Текущее время: Сегодня 08:29

Часовой пояс: GMT + 4



Вы не можете начинать темы
Вы не можете отвечать на сообщения
Вы не можете редактировать свои сообщения
Вы не можете удалять свои сообщения
Вы не можете голосовать в опросах
Вы не можете прикреплять файлы к сообщениям
Вы не можете скачивать файлы