Увлечение Стеллы / How Stella Got Her Groove Back (Кевин Родни Салливан / Kevin Rodney Sullivan) [1998, США, драма, мелодрама, комедия, WEB-DL 720p] MVO (R5) + Sub Rus, Eng, Ukr + Original Eng

Ответить на тему
 
Автор Сообщение

user ®

Стаж: 7 лет 7 месяцев

Сообщений: 20008

Пост Пост: #1 от 23-Сен-2015 18:51

[Цитировать]

Увлечение Стеллы / How Stella Got Her Groove Back
Страна: США
Студия: 20th Century Fox Film Corporation
Жанр: драма, мелодрама, комедия
Год выпуска: 1998
Продолжительность: 02:04:30
Перевод: Профессиональный (многоголосый закадровый) R5
Cубтитры: русские, украинские, английские
Оригинальная аудиодорожка: английский
Режиссер: Кевин Родни Салливан / Kevin Rodney Sullivan
В ролях: Анджела Бассетт, Тэй Диггз, Вупи Голдберг, Реджина Кинг, Сьюззанн Дугласс, Майкл Дж. Паган, Сицилия, Ричард Лосон, Бэрри Шебака Хенли, Ли Уивер
Описание: Стелла Пэйн, преуспевающая бизнес-леди, давно забыла, когда в последний раз была в отпуске. Ее лучшая подруга Делайла решает исправить такое ненормальное положение дел. И поддавшись спонтанному порыву, они отправляются на Ямайку к прекрасному голубому морю и белому песку. Романтической настроение витает здесь в воздухе. И вскоре Стелла знакомится с молодым чернокожим красавцем. Парень — предел всех мечтаний. И Стелла с удивлением понимает, что ее сердце открыто для любви. Единственное, что смущает — 20-летняя разница в возрасте.

Sample
Тип релиза: WEB-DL 720p
Контейнер: MKV
Видео: MPEG4 AVC Video, H264, 16:9, 1280x720, 23.976 fps, 4148 kbps
Аудио: Russian (AC3, 6 ch, 448 kbps, 16 bits, 48.0 KHz) - MVO
Аудио 2: English (AC3, 6 ch, 448 kbps, 16 bits, 48.0 KHz) - оригинал
Формат субтитров: softsub (SRT)

MediaInfo
General
Unique ID : 219131891324891688798715718639344447838 (0xA4DB4462741B65F88CAB89594BF8715E)
Complete name : K:\How Stella Got Her Groove Back 1998 WEB-DL 720p.mkv
Format : Matroska
Format version : Version 4 / Version 2
File size : 4.48 GiB
Duration : 2h 4mn
Overall bit rate : 5 147 Kbps
Encoded date : UTC 2015-09-21 17:55:02
Writing application : mkvmerge v6.1.0 ('Old Devil') built on Mar 2 2013 14:32:37
Writing library : libebml v1.3.0 + libmatroska v1.4.0
Video
ID : 1
Format : AVC
Format/Info : Advanced Video Codec
Format profile : High@L3.1
Format settings, CABAC : No
Format settings, ReFrames : 2 frames
Codec ID : V_MPEG4/ISO/AVC
Duration : 2h 4mn
Bit rate : 4 148 Kbps
Width : 1 280 pixels
Height : 720 pixels
Display aspect ratio : 16:9
Frame rate mode : Constant
Frame rate : 23.976 fps
Color space : YUV
Chroma subsampling : 4:2:0
Bit depth : 8 bits
Scan type : Progressive
Bits/(Pixel*Frame) : 0.188
Stream size : 3.61 GiB (81%)
Language : English
Default : Yes
Forced : No
Color primaries : BT.709
Transfer characteristics : BT.709
Matrix coefficients : BT.709
Audio #1
ID : 2
Format : AC-3
Format/Info : Audio Coding 3
Mode extension : CM (complete main)
Format settings, Endianness : Big
Codec ID : A_AC3
Duration : 2h 4mn
Bit rate mode : Constant
Bit rate : 448 Kbps
Channel count : 6 channels
Channel positions : Front: L C R, Side: L R, LFE
Sampling rate : 48.0 KHz
Bit depth : 16 bits
Compression mode : Lossy
Stream size : 399 MiB (9%)
Language : Russian
Default : Yes
Forced : No
Audio #2
ID : 3
Format : AC-3
Format/Info : Audio Coding 3
Mode extension : CM (complete main)
Format settings, Endianness : Big
Codec ID : A_AC3
Duration : 2h 4mn
Bit rate mode : Constant
Bit rate : 448 Kbps
Channel count : 6 channels
Channel positions : Front: L C R, Side: L R, LFE
Sampling rate : 48.0 KHz
Bit depth : 16 bits
Compression mode : Lossy
Stream size : 399 MiB (9%)
Language : English
Default : No
Forced : No
Text #1
ID : 4
Format : UTF-8
Codec ID : S_TEXT/UTF8
Codec ID/Info : UTF-8 Plain Text
Language : Russian
Default : No
Forced : No
Text #2
ID : 5
Format : UTF-8
Codec ID : S_TEXT/UTF8
Codec ID/Info : UTF-8 Plain Text
Language : Ukrainian
Default : No
Forced : No
Text #3
ID : 6
Format : UTF-8
Codec ID : S_TEXT/UTF8
Codec ID/Info : UTF-8 Plain Text
Language : English
Default : No
Forced : No
Menu
00:00:00.000 : en:A Woman in Control (Main Titles)
00:03:35.000 : en:Sisters
00:06:17.000 : en:Two Whole Weeks
00:08:35.000 : en:Come to Paradise . . .
00:11:14.000 : en:Delilah
00:13:08.000 : en:Welcome to Jamaica
00:18:13.000 : en:Winston
00:22:59.000 : en:Buddy and Jack
00:25:18.000 : en:The Pajama Disco
00:32:15.000 : en:Delilah's Opinion
00:34:42.000 : en:Getting Intimate
00:39:01.000 : en:Lovers
00:40:40.000 : en:A Passion
00:43:26.000 : en:The Push-Off
00:48:44.000 : en:Welcome Back, Slut
00:52:00.000 : en:A Redundancy
00:54:54.000 : en:Some Guy Named Winston
00:57:46.000 : en:Back to Jamaica
01:02:40.000 : en:Life is Too Short
01:05:25.000 : en:Winston's Parents
01:09:33.000 : en:Cancer
01:11:47.000 : en:The Hospital
01:17:34.000 : en:Who'll Be My Best Friend Now?
01:22:08.000 : en:Meet the Family
01:27:37.000 : en:Man-to-Man
01:31:17.000 : en:You Don't Have to Forget
01:33:57.000 : en:At the Movies
01:36:10.000 : en:Get Used to It
01:37:32.000 : en:A Boy or a Man
01:40:49.000 : en:Winston's Gift
01:42:48.000 : en:The Big Offer
01:46:31.000 : en:Waiting for an Answer
01:51:51.000 : en:Winston's Decision
01:58:01.000 : en:The Answer
01:59:34.000 : en:End Titles (Your Home Is In My Heart)
Скриншоты
Скачать

Скачать торрент!

Как скачивать? · Что такое торрент? · Рейтинг и ограничения

Сайт не распространяет и не хранит электронные версии произведений, а лишь предоставляет доступ к создаваемому пользователями каталогу ссылок на торрент-файлы, которые содержат только списки хеш-сумм

[Профиль] [ЛС]
Показать сообщения:    
Ответить на тему

Текущее время: Сегодня 12:54

Часовой пояс: GMT + 4



Вы не можете начинать темы
Вы не можете отвечать на сообщения
Вы не можете редактировать свои сообщения
Вы не можете удалять свои сообщения
Вы не можете голосовать в опросах
Вы не можете прикреплять файлы к сообщениям
Вы не можете скачивать файлы