Тропой войны / Путь к войне / Path to War (Джон Франкенхаймер / John Frankenheimer) [2002, США, драма, WEB-DL 720p] VO + Sub Rus, Eng + Original Eng

Ответить на тему
 
Автор Сообщение

user ®

Стаж: 7 лет 7 месяцев

Сообщений: 20008

Пост Пост: #1 от 23-Сен-2015 18:51

[Цитировать]

Тропой войны / Путь к войне / Path to War
Страна: США
Студия: Home Box Office (HBO) и другие
Жанр: драма
Год выпуска: 2002
Продолжительность: 02:44:31
Перевод: Одноголосый закадровый
Cубтитры: русские, английские
Оригинальная аудиодорожка: английский
Режиссер: Джон Франкенхаймер / John Frankenheimer
В ролях: Майкл Гэмбон, Дональд Сазерленд, Алек Болдуин, Брюс МакГилл, Джеймс Фрейн, Фелисити Хаффмен, Фредерик Форрест, Джон Эйлуорд, Филип Бейкер Холл, Том Скеррит
Описание: После смерти Дж. Ф. Кеннеди место главы США занял вице-президент Линдон Джонсон. Он одержал сокрушительную победу над кандидатами других партий и стал самым поддерживаемым президентом за всю историю америки.
Его предваборная программа, направленная на улучшение социальных благ, культуры, искусства и науки, была примером идеального пути развития для мирной страны. Однако уже спустя четыре дня после церемонии иннагурации президенту Джонсону пришлось пересмотреть свои взгляды на политику страны.
Резко обострилась ситуация во Вьетнаме, где американская армия, скрывая этот факт от общественности, уже долгое время держала свой контингент, защищая собственные интересы в Азии. Поддавшись на уговоры министров Джонсон решает продолжать военную кампанию, надеясь решить проблему одним мощным ударом.


Sample
Тип релиза: WEB-DL 720p
Контейнер: MKV
Видео: MPEG4 AVC Video, H264, 16:9, 1280x720, 23.976 fps, 2437 kbps
Аудио: Russian (AC3, 2 ch, 192 kbps, 16 bits, 48.0 KHz) - VO
Аудио 2: English (AC3, 2 ch, 192 kbps, 16 bits, 48.0 KHz) - оригинал
Формат субтитров: softsub (SRT)

MediaInfo
General
Unique ID : 220030236510455982826475352644971480207 (0xA5884838CB4A88CC9EA543F2B3F9448F)
Complete name : K:\111\Path.to.War.2002.720p.WEB-DL.AAC2.0.H264-FGT\Path to War 2002 WEB-DL 720p.mkv
Format : Matroska
Format version : Version 4 / Version 2
File size : 3.31 GiB
Duration : 2h 44mn
Overall bit rate mode : Variable
Overall bit rate : 2 879 Kbps
Encoded date : UTC 2015-09-21 18:03:26
Writing application : mkvmerge v6.1.0 ('Old Devil') built on Mar 2 2013 14:32:37
Writing library : libebml v1.3.0 + libmatroska v1.4.0
Video
ID : 1
Format : AVC
Format/Info : Advanced Video Codec
Format profile : High@L3.1
Format settings, CABAC : Yes
Format settings, ReFrames : 5 frames
Codec ID : V_MPEG4/ISO/AVC
Duration : 2h 44mn
Bit rate mode : Variable
Bit rate : 2 437 Kbps
Maximum bit rate : 3 750 Kbps
Width : 1 280 pixels
Height : 720 pixels
Display aspect ratio : 16:9
Frame rate mode : Constant
Frame rate : 23.976 fps
Color space : YUV
Chroma subsampling : 4:2:0
Bit depth : 8 bits
Scan type : Progressive
Bits/(Pixel*Frame) : 0.110
Stream size : 2.80 GiB (85%)
Language : English
Default : Yes
Forced : No
Color primaries : BT.709
Transfer characteristics : BT.709
Matrix coefficients : BT.709
Audio #1
ID : 2
Format : AC-3
Format/Info : Audio Coding 3
Mode extension : CM (complete main)
Format settings, Endianness : Big
Codec ID : A_AC3
Duration : 2h 44mn
Bit rate mode : Constant
Bit rate : 192 Kbps
Channel count : 2 channels
Channel positions : Front: L R
Sampling rate : 48.0 KHz
Bit depth : 16 bits
Compression mode : Lossy
Stream size : 226 MiB (7%)
Language : Russian
Default : Yes
Forced : No
Audio #2
ID : 3
Format : AC-3
Format/Info : Audio Coding 3
Mode extension : CM (complete main)
Format settings, Endianness : Big
Codec ID : A_AC3
Duration : 2h 44mn
Bit rate mode : Constant
Bit rate : 192 Kbps
Channel count : 2 channels
Channel positions : Front: L R
Sampling rate : 48.0 KHz
Bit depth : 16 bits
Compression mode : Lossy
Stream size : 226 MiB (7%)
Language : English
Default : No
Forced : No
Text #1
ID : 4
Format : UTF-8
Codec ID : S_TEXT/UTF8
Codec ID/Info : UTF-8 Plain Text
Language : Russian
Default : No
Forced : No
Text #2
ID : 5
Format : UTF-8
Codec ID : S_TEXT/UTF8
Codec ID/Info : UTF-8 Plain Text
Language : English
Default : No
Forced : No
Скриншоты
Скачать

Скачать торрент!

Как скачивать? · Что такое торрент? · Рейтинг и ограничения

Сайт не распространяет и не хранит электронные версии произведений, а лишь предоставляет доступ к создаваемому пользователями каталогу ссылок на торрент-файлы, которые содержат только списки хеш-сумм

[Профиль] [ЛС]
Показать сообщения:    
Ответить на тему

Текущее время: Сегодня 05:58

Часовой пояс: GMT + 4



Вы не можете начинать темы
Вы не можете отвечать на сообщения
Вы не можете редактировать свои сообщения
Вы не можете удалять свои сообщения
Вы не можете голосовать в опросах
Вы не можете прикреплять файлы к сообщениям
Вы не можете скачивать файлы