Префонтейн / Prefontaine (Стив Джеймс / Steve James) [1997, США, драма, биография, спорт, WEB-DL 720p] DVO + Sub Rus, Eng + Original Eng

Ответить на тему
 
Автор Сообщение

user ®

Стаж: 7 лет 7 месяцев

Сообщений: 20008

Пост Пост: #1 от 23-Сен-2015 18:51

[Цитировать]

Префонтейн / Prefontaine
Страна: США
Студия: Hollywood Pictures
Жанр: драма, биография, спорт
Год выпуска: 1997
Продолжительность: 01:46:35
Перевод: Профессиональный (двухголосый закадровый)
Cубтитры: русские, английские
Оригинальная аудиодорожка: английский
Режиссер: Стив Джеймс / Steve James
В ролях: Джаред Лето, Р. Ли Эрми, Эд О’Нил, Брекин Мейер, Линдси Краус, Эми Локейн, Лорел Холломан, Брайан МакГоверн, Кертвуд Смит, Адриан Амадеус
Описание: История драматической жизни легендарного Стива Префонтейна, спортсмена, которому не было равных на беговой дорожке. Для него не существовало нерушимых границ и недостижимых рекордов. Но солнце олимпийского золота жестоко к тем, кто подлетает к нему слишком близко.
На пути к победе Префонтейну пришлось пережить горечь поражений, способных остановить любого, но только не его. Великое и трагическое — две стороны золотой медали, и Стиву Префонтейну суждено было стать самой трагической великой звездой мирового спорта.


Sample
Тип релиза: WEB-DL 720p
Контейнер: MKV
Видео: MPEG4 AVC Video, H264, 16:9, 1280x694, 23.976 fps, 3938 kbps
Аудио: Russian (AC3, 2 ch, 192 kbps, 16 bits, 48.0 KHz) - DVO
Аудио 2: English (AC3, 6 ch, 384 kbps, 16 bits, 48.0 KHz) - оригинал
Формат субтитров: softsub (SRT)

MediaInfo
General
Unique ID : 222468168779560505035251625800160061597 (0xA75DCF9019D334ACA1AFBB413729289D)
Complete name : K:\Prefontaine 1997 WEB-DL 720p.mkv
Format : Matroska
Format version : Version 4 / Version 2
File size : 3.43 GiB
Duration : 1h 46mn
Overall bit rate : 4 605 Kbps
Encoded date : UTC 2015-09-21 17:52:05
Writing application : mkvmerge v6.1.0 ('Old Devil') built on Mar 2 2013 14:32:37
Writing library : libebml v1.3.0 + libmatroska v1.4.0
Video
ID : 1
Format : AVC
Format/Info : Advanced Video Codec
Format profile : High@L3.1
Format settings, CABAC : No
Format settings, ReFrames : 2 frames
Codec ID : V_MPEG4/ISO/AVC
Duration : 1h 46mn
Bit rate : 3 938 Kbps
Width : 1 280 pixels
Height : 694 pixels
Display aspect ratio : 1.85:1
Frame rate mode : Constant
Frame rate : 23.976 fps
Color space : YUV
Chroma subsampling : 4:2:0
Bit depth : 8 bits
Scan type : Progressive
Bits/(Pixel*Frame) : 0.185
Stream size : 2.93 GiB (86%)
Language : English
Default : Yes
Forced : No
Color primaries : BT.709
Transfer characteristics : BT.709
Matrix coefficients : BT.709
Audio #1
ID : 2
Format : AC-3
Format/Info : Audio Coding 3
Mode extension : CM (complete main)
Format settings, Endianness : Big
Codec ID : A_AC3
Duration : 1h 46mn
Bit rate mode : Constant
Bit rate : 192 Kbps
Channel count : 2 channels
Channel positions : Front: L R
Sampling rate : 48.0 KHz
Bit depth : 16 bits
Compression mode : Lossy
Stream size : 146 MiB (4%)
Language : Russian
Default : Yes
Forced : No
Audio #2
ID : 3
Format : AC-3
Format/Info : Audio Coding 3
Mode extension : CM (complete main)
Format settings, Endianness : Big
Codec ID : A_AC3
Duration : 1h 46mn
Bit rate mode : Constant
Bit rate : 384 Kbps
Channel count : 6 channels
Channel positions : Front: L C R, Side: L R, LFE
Sampling rate : 48.0 KHz
Bit depth : 16 bits
Compression mode : Lossy
Stream size : 293 MiB (8%)
Language : English
Default : No
Forced : No
Text #1
ID : 4
Format : UTF-8
Codec ID : S_TEXT/UTF8
Codec ID/Info : UTF-8 Plain Text
Language : Russian
Default : No
Forced : No
Text #2
ID : 5
Format : UTF-8
Codec ID : S_TEXT/UTF8
Codec ID/Info : UTF-8 Plain Text
Language : English
Default : No
Forced : No
Menu
00:00:00.000 : en:Prefontaine
00:02:22.000 : en:"Bees To Honey"
00:10:00.000 : en:Off To College
00:17:59.000 : en:1, 2, 3 mile?
00:25:56.000 : en:New Love
00:37:27.000 : en:"Go 'Pre"
00:50:11.000 : en:"You're Running The 5,000"
01:00:06.000 : en:Go For The Gold
01:09:58.000 : en:Welcome Home
01:21:07.000 : en:The Greek Goddess Of Victory
01:34:15.000 : en:Farewell 'Pre'
01:42:21.000 : en:End Credits
Скриншоты
Скачать

Скачать торрент!

Как скачивать? · Что такое торрент? · Рейтинг и ограничения

Сайт не распространяет и не хранит электронные версии произведений, а лишь предоставляет доступ к создаваемому пользователями каталогу ссылок на торрент-файлы, которые содержат только списки хеш-сумм

[Профиль] [ЛС]
Показать сообщения:    
Ответить на тему

Текущее время: Сегодня 15:35

Часовой пояс: GMT + 4



Вы не можете начинать темы
Вы не можете отвечать на сообщения
Вы не можете редактировать свои сообщения
Вы не можете удалять свои сообщения
Вы не можете голосовать в опросах
Вы не можете прикреплять файлы к сообщениям
Вы не можете скачивать файлы